<?xml version="1.0" standalone="no"?>
<!DOCTYPE svg PUBLIC "-//W3C//DTD SVG 1.1//EN" "http://www.w3.org/Graphics/SVG/1.1/DTD/svg11.dtd" >
<svg xmlns="http://www.w3.org/2000/svg" xmlns:xlink="http://www.w3.org/1999/xlink" version="1.1">
<metadata>
Created by FontForge 20170509 at Mon Apr 15 17:01:56 2019
 By fw_worker
Copyright (c) 2013 by Rafa Goicoechea. All rights reserved.
</metadata>
<defs>
<font id="Sifonn-Basic" horiz-adv-x="592" >
  <font-face 
    font-family="Sifonn"
    font-weight="700"
    font-stretch="normal"
    units-per-em="1000"
    panose-1="0 0 0 0 0 0 0 0 0 0"
    ascent="750"
    descent="-250"
    x-height="505"
    cap-height="745"
    bbox="-182 -291 1277 1024"
    underline-thickness="58"
    underline-position="-117"
    unicode-range="U+0020-FB05"
  />
<missing-glyph horiz-adv-x="851" 
d="M425 -13c-213 0 -385 174 -385 385c0 214 172 386 385 386c214 0 386 -172 386 -386c0 -211 -172 -385 -386 -385zM425 676c-165 0 -293 -134 -293 -304c0 -167 128 -301 293 -301c166 0 296 134 296 301c0 170 -131 304 -296 304zM292 528c36 0 61 -26 61 -59
c0 -32 -25 -59 -61 -59c-35 0 -59 27 -59 59c0 33 25 59 59 59zM624 209h-86v4c-2 52 -49 96 -106 96c-54 0 -102 -43 -108 -100h-87c6 99 91 182 195 182c108 0 190 -78 192 -178v-4zM569 528c36 0 61 -26 61 -59c0 -32 -25 -59 -61 -59c-35 0 -59 27 -59 59
c0 33 25 59 59 59z" />
    <glyph glyph-name="fi" unicode="fi" horiz-adv-x="603" 
d="M338 752v-146c-65 0 -109 -40 -109 -89v-12h323v-505h-141v374h-182v-374h-142v374h-69v131h69v7c0 140 114 240 251 240zM488 594c-44 0 -82 37 -82 81c0 40 38 78 82 78c48 0 84 -37 84 -78c0 -44 -36 -81 -84 -81z" />
    <glyph glyph-name="fl" unicode="fl" horiz-adv-x="612" 
d="M552 745v-745h-141v374h-182v-374h-142v374h-69v131h69v7c0 140 114 240 251 240v-146c-65 0 -109 -40 -109 -89v-12h182v240h141z" />
    <glyph glyph-name="f_f" unicode="ff" horiz-adv-x="680" 
d="M666 752v-146c-66 0 -110 -40 -110 -89v-12h100v-131h-100v-374h-141v374h-182v-374h-142v374h-69v131h69v7c0 140 114 240 251 240v-146c-65 0 -109 -40 -109 -89v-12h182v7c0 140 115 240 251 240z" />
    <glyph glyph-name="f_f_i" unicode="ffi" horiz-adv-x="932" 
d="M881 505v-505h-142v374h-183v-374h-141v374h-182v-374h-142v374h-69v131h69v7c0 140 114 240 251 240v-146c-65 0 -109 -40 -109 -89v-12h182v7c0 140 115 240 251 240v-146c-66 0 -110 -40 -110 -89v-12h325zM816 594c-44 0 -82 37 -82 81c0 40 38 78 82 78
c48 0 84 -37 84 -78c0 -44 -36 -81 -84 -81z" />
    <glyph glyph-name=".notdef" horiz-adv-x="851" 
d="M425 -13c-213 0 -385 174 -385 385c0 214 172 386 385 386c214 0 386 -172 386 -386c0 -211 -172 -385 -386 -385zM425 676c-165 0 -293 -134 -293 -304c0 -167 128 -301 293 -301c166 0 296 134 296 301c0 170 -131 304 -296 304zM292 528c36 0 61 -26 61 -59
c0 -32 -25 -59 -61 -59c-35 0 -59 27 -59 59c0 33 25 59 59 59zM624 209h-86v4c-2 52 -49 96 -106 96c-54 0 -102 -43 -108 -100h-87c6 99 91 182 195 182c108 0 190 -78 192 -178v-4zM569 528c36 0 61 -26 61 -59c0 -32 -25 -59 -61 -59c-35 0 -59 27 -59 59
c0 33 25 59 59 59z" />
    <glyph glyph-name="space" unicode=" " horiz-adv-x="421" 
 />
    <glyph glyph-name="exclam" unicode="!" horiz-adv-x="297" 
d="M214 745v-510h-131v510h131zM148 140c46 0 78 -34 78 -77c0 -41 -32 -76 -78 -76s-77 35 -77 76c0 43 32 77 77 77z" />
    <glyph glyph-name="quotedbl" unicode="&#x22;" horiz-adv-x="385" 
d="M118 531h-85v227h155zM303 531h-86v227h156z" />
    <glyph glyph-name="numbersign" unicode="#" horiz-adv-x="716" 
d="M209 0h-117l53 204h-102v112h131l32 122h-128v112h157l51 195h112l-49 -195h120l51 195h112l-49 -195h97v-112h-127l-30 -122h122v-112h-150l-52 -204h-117l53 204h-118zM319 438l-30 -122h119l32 122h-121z" />
    <glyph glyph-name="dollar" unicode="$" horiz-adv-x="556" 
d="M202 -85v80c-61 12 -121 44 -172 101l128 94c34 -43 69 -54 113 -54c51 0 91 41 91 89c0 60 -40 97 -112 105c-129 15 -213 96 -213 213c0 104 79 183 165 207v77h131v-81c45 -14 87 -40 124 -84l-122 -89c-20 21 -53 37 -79 37c-41 0 -69 -25 -69 -66
c0 -34 25 -65 104 -70c127 -8 232 -94 232 -238c0 -122 -85 -215 -190 -241v-80h-131z" />
    <glyph glyph-name="percent" unicode="%" horiz-adv-x="897" 
d="M340 0h-125l335 745h119zM697 35c-90 0 -166 76 -166 166c0 95 76 171 166 171c96 0 171 -76 171 -171c0 -90 -75 -166 -171 -166zM697 266c-31 0 -57 -26 -57 -65c0 -33 26 -61 57 -61c36 0 60 28 60 61c0 39 -25 65 -60 65zM195 372c-90 0 -166 76 -166 166
c0 95 76 171 166 171c96 0 171 -76 171 -171c0 -90 -75 -166 -171 -166zM195 603c-31 0 -57 -26 -57 -65c0 -33 26 -61 57 -61c37 0 60 28 60 61c0 39 -25 65 -60 65z" />
    <glyph glyph-name="ampersand" unicode="&#x26;" horiz-adv-x="661" 
d="M649 331v-122h-77c-16 -126 -123 -222 -255 -222c-158 0 -281 118 -281 277c0 109 64 202 167 240l-128 241h396v-131h-176l123 -237h-116c-67 0 -115 -51 -115 -124c0 -66 55 -122 130 -122c65 0 112 46 112 112v88h220z" />
    <glyph glyph-name="quotesingle" unicode="'" horiz-adv-x="200" 
d="M118 531h-85v227h155z" />
    <glyph glyph-name="parenleft" unicode="(" horiz-adv-x="314" 
d="M181 758l97 -67c-64 -106 -107 -244 -107 -384c0 -147 43 -286 114 -398l-103 -72c-87 138 -139 300 -139 470c0 168 50 324 138 451z" />
    <glyph glyph-name="parenright" unicode=")" horiz-adv-x="314" 
d="M36 691l97 67c88 -127 138 -283 138 -451c0 -170 -51 -332 -139 -470l-103 72c71 112 115 251 115 398c0 140 -44 278 -108 384z" />
    <glyph glyph-name="asterisk" unicode="*" horiz-adv-x="372" 
d="M75 450l-46 62l91 67l-91 67l46 62l72 -53v90h77v-90l73 53l46 -62l-92 -67l92 -67l-46 -62l-73 53v-90h-77v90z" />
    <glyph glyph-name="plus" unicode="+" horiz-adv-x="578" 
d="M350 111h-122v186h-181v112h181v187h122v-187h181v-112h-181v-186z" />
    <glyph glyph-name="comma" unicode="," horiz-adv-x="282" 
d="M103 -163h-88l67 227h160z" />
    <glyph glyph-name="hyphen" unicode="-" horiz-adv-x="385" 
d="M338 363v-111h-291v111h291z" />
    <glyph glyph-name="period" unicode="." horiz-adv-x="274" 
d="M137 140c46 0 77 -34 77 -77c0 -41 -30 -76 -77 -76c-46 0 -77 35 -77 76c0 43 31 77 77 77z" />
    <glyph glyph-name="slash" unicode="/" horiz-adv-x="560" 
d="M102 -163h-133l465 908h126z" />
    <glyph glyph-name="zero" unicode="0" horiz-adv-x="850" 
d="M426 -13c-214 0 -386 173 -386 385c0 214 172 386 385 386s384 -172 384 -386c0 -212 -171 -385 -383 -385zM425 619c-131 0 -236 -109 -236 -247c0 -137 105 -244 237 -244c131 0 234 107 234 244c0 138 -104 247 -235 247z" />
    <glyph glyph-name="one" unicode="1" horiz-adv-x="307" 
d="M261 745v-745h-145v614h-94v131h239z" />
    <glyph glyph-name="two" unicode="2" horiz-adv-x="520" 
d="M498 0h-472l204 333c-104 13 -186 103 -186 211c0 111 93 214 212 214c117 0 213 -97 213 -214c0 -43 -14 -83 -35 -118l-180 -295h244v-131zM178 542c0 -42 35 -77 77 -77s77 35 77 77s-35 77 -77 77s-77 -35 -77 -77z" />
    <glyph glyph-name="three" unicode="3" horiz-adv-x="519" 
d="M67 746h402l-138 -264c96 -36 156 -125 156 -228c0 -152 -114 -266 -258 -266c-85 0 -160 44 -207 109l119 87c19 -31 51 -52 88 -52c61 0 107 51 107 110c0 67 -47 113 -107 113h-113l134 260h-183v131z" />
    <glyph glyph-name="four" unicode="4" horiz-adv-x="573" 
d="M458 383v-73h100v-131h-100v-179h-140v179h-310l286 566h147l-217 -435h94v73h140z" />
    <glyph glyph-name="five" unicode="5" horiz-adv-x="533" 
d="M81 745h332v-131h-199v-116h26c155 0 257 -98 257 -245c0 -152 -118 -266 -269 -266c-78 0 -158 40 -206 107l119 87c19 -29 52 -50 87 -50c68 0 121 39 121 110c0 78 -46 112 -109 112h-159v392z" />
    <glyph glyph-name="six" unicode="6" horiz-adv-x="591" 
d="M285 745h155l-139 -247c138 -5 246 -118 246 -257s-113 -254 -257 -254c-139 0 -254 115 -254 254c0 48 16 96 40 138zM290 353c-57 0 -104 -45 -104 -112c0 -60 47 -110 104 -110c61 0 106 50 106 110c0 67 -46 112 -106 112z" />
    <glyph glyph-name="seven" unicode="7" horiz-adv-x="522" 
d="M27 745h508l-380 -745h-154l311 614h-285v131z" />
    <glyph glyph-name="eight" unicode="8" horiz-adv-x="584" 
d="M290 -13c-139 0 -254 115 -254 254c0 73 31 138 79 185c-24 34 -37 75 -37 118c0 117 96 214 212 214c119 0 214 -97 214 -214c0 -43 -13 -83 -36 -117c49 -47 79 -112 79 -186c0 -139 -113 -254 -257 -254zM290 353c-57 0 -104 -46 -104 -112c0 -60 47 -110 104 -110
c61 0 106 50 106 110c0 66 -46 112 -106 112zM290 618c-39 0 -69 -32 -69 -74c0 -41 30 -74 69 -74c42 0 71 33 71 74c0 42 -31 74 -71 74z" />
    <glyph glyph-name="nine" unicode="9" horiz-adv-x="591" 
d="M298 0h-152l139 247c-140 3 -249 117 -249 257c0 139 114 254 258 254c139 0 253 -115 253 -254c0 -41 -8 -80 -27 -113zM294 392c57 0 104 46 104 112c0 60 -47 110 -104 110c-61 0 -107 -50 -107 -110c0 -66 47 -112 107 -112z" />
    <glyph glyph-name="colon" unicode=":" horiz-adv-x="274" 
d="M137 140c46 0 77 -34 77 -77c0 -41 -30 -76 -77 -76c-46 0 -77 35 -77 76c0 43 31 77 77 77zM137 526c46 0 77 -33 77 -77c0 -41 -30 -76 -77 -76c-46 0 -77 35 -77 76c0 44 31 77 77 77z" />
    <glyph glyph-name="semicolon" unicode=";" horiz-adv-x="282" 
d="M103 -163h-88l67 227h160zM150 526c46 0 78 -33 78 -77c0 -41 -31 -76 -78 -76c-45 0 -77 35 -77 76c0 44 32 77 77 77z" />
    <glyph glyph-name="less" unicode="&#x3c;" horiz-adv-x="427" 
d="M29 352l351 363v-157l-201 -206l201 -194v-157z" />
    <glyph glyph-name="equal" unicode="=" horiz-adv-x="578" 
d="M513 292v-112h-449v112h449zM513 526v-112h-449v112h449z" />
    <glyph glyph-name="greater" unicode="&#x3e;" horiz-adv-x="427" 
d="M47 715l351 -363l-351 -351v157l201 194l-201 206v157z" />
    <glyph glyph-name="question" unicode="?" horiz-adv-x="441" 
d="M115 234v227h90c44 3 76 41 76 84c0 53 -35 88 -83 88c-30 0 -55 -15 -69 -41l-103 75c38 55 101 91 172 91c120 0 214 -95 214 -214c0 -99 -71 -184 -166 -205v-105h-131zM180 140c46 0 77 -34 77 -77c0 -41 -30 -76 -77 -76c-46 0 -77 35 -77 76c0 43 31 77 77 77z" />
    <glyph glyph-name="at" unicode="@" horiz-adv-x="944" 
d="M561 511h103v-351c78 40 126 118 126 223c0 153 -134 276 -305 276c-187 0 -331 -145 -331 -333c0 -182 144 -321 332 -321v-107c-260 0 -446 198 -446 428c0 243 196 433 445 433c234 0 419 -168 419 -376c0 -189 -151 -349 -352 -378v168c-21 -15 -48 -22 -78 -22
c-109 0 -190 82 -190 190c0 98 83 192 186 192c30 0 61 -8 91 -22zM472 262c45 0 81 35 81 80c0 44 -36 80 -81 80c-42 0 -79 -36 -79 -80c0 -45 37 -80 79 -80z" />
    <glyph glyph-name="A" unicode="A" horiz-adv-x="775" 
d="M612 0l-49 100h-361l-48 -100h-160l393 758l394 -758h-169zM381 472l-112 -232h226z" />
    <glyph glyph-name="B" unicode="B" horiz-adv-x="635" 
d="M331 0h-260v745h239c138 0 237 -58 237 -197c0 -52 -17 -93 -53 -126c67 -46 101 -110 101 -182c0 -152 -127 -240 -264 -240zM226 140h110c64 0 100 37 100 95c0 60 -36 97 -100 97h-110v-192zM226 467h78c75 0 84 38 84 69c0 57 -41 69 -84 69h-78v-138z" />
    <glyph glyph-name="C" unicode="C" horiz-adv-x="847" 
d="M650 329h157c-22 -191 -186 -342 -384 -342c-213 0 -383 172 -383 385s170 386 382 386c139 0 262 -72 329 -181l-121 -86c-54 80 -130 119 -207 119c-125 0 -224 -106 -224 -238c0 -131 99 -236 224 -236c112 0 206 81 227 193z" />
    <glyph glyph-name="D" unicode="D" horiz-adv-x="803" 
d="M71 745h302c215 0 390 -160 390 -372c0 -214 -175 -373 -389 -373h-303v745zM226 140h148c129 0 230 99 230 233c0 135 -101 232 -231 232h-147v-465z" />
    <glyph glyph-name="E" unicode="E" horiz-adv-x="573" 
d="M533 0h-462v745h396v-140h-241v-139h280v-139h-280v-187h307v-140z" />
    <glyph glyph-name="F" unicode="F" horiz-adv-x="536" 
d="M226 0h-155v745h396v-140h-241v-139h280v-139h-280v-327z" />
    <glyph glyph-name="G" unicode="G" horiz-adv-x="847" 
d="M809 407v-23c0 -220 -172 -397 -386 -397c-213 0 -383 172 -383 385s170 386 382 386c139 0 262 -72 329 -181l-124 -90c-39 73 -116 123 -204 123c-125 0 -224 -106 -224 -238c0 -131 99 -236 224 -236c90 0 173 46 206 133h-202v138h382z" />
    <glyph glyph-name="H" unicode="H" horiz-adv-x="794" 
d="M71 745h155v-279h342v279h155v-745h-155v327h-342v-327h-155v745z" />
    <glyph glyph-name="I" unicode="I" horiz-adv-x="297" 
d="M226 745v-745h-155v745h155z" />
    <glyph glyph-name="J" unicode="J" horiz-adv-x="672" 
d="M322 745h286v-412c0 -187 -110 -346 -324 -346c-151 0 -270 75 -308 240l142 43c30 -120 118 -134 167 -134c113 0 169 98 169 197v272h-132v140z" />
    <glyph glyph-name="K" unicode="K" horiz-adv-x="791" 
d="M226 745v-352l352 352h207l-366 -366l378 -379h-209l-279 280l-83 -83v-197h-155v745h155z" />
    <glyph glyph-name="L" unicode="L" horiz-adv-x="541" 
d="M71 745h155v-605h300v-140h-455v745z" />
    <glyph glyph-name="M" unicode="M" horiz-adv-x="936" 
d="M468 457l396 301v-758h-154v449l-242 -175l-242 175v-449h-155v758z" />
    <glyph glyph-name="N" unicode="N" horiz-adv-x="827" 
d="M601 314v431h155v-758l-530 441v-428h-155v759z" />
    <glyph glyph-name="O" unicode="O" horiz-adv-x="851" 
d="M426 -13c-214 0 -386 173 -386 386s172 385 385 385c214 0 386 -172 386 -385s-172 -386 -385 -386zM425 610c-127 0 -226 -106 -226 -237c0 -133 99 -237 227 -237c126 0 226 104 226 237c0 131 -101 237 -227 237z" />
    <glyph glyph-name="P" unicode="P" horiz-adv-x="667" 
d="M226 0h-155v745h254c183 0 312 -149 312 -300c0 -191 -135 -332 -322 -332h-89v-113zM226 254h85c108 0 167 79 167 175c0 87 -57 176 -158 176h-94v-351z" />
    <glyph glyph-name="Q" unicode="Q" horiz-adv-x="850" 
d="M272 -144l91 137c-184 29 -323 188 -323 379c0 214 172 386 385 386c214 0 386 -172 386 -386c0 -178 -122 -329 -287 -372h206v-144h-458zM425 610c-127 0 -226 -106 -226 -238s99 -236 227 -236c126 0 226 104 226 236s-101 238 -227 238z" />
    <glyph glyph-name="R" unicode="R" horiz-adv-x="675" 
d="M304 129h-78v-129h-155v745h259c175 0 309 -131 309 -293c0 -134 -64 -232 -168 -280l161 -172h-206zM226 269h64c123 0 190 60 190 171c0 91 -54 165 -160 165h-94v-336z" />
    <glyph glyph-name="S" unicode="S" horiz-adv-x="556" 
d="M250 330c-129 15 -213 96 -213 213c0 126 116 215 219 215c74 0 144 -28 201 -96l-122 -89c-20 21 -53 37 -79 37c-41 0 -69 -25 -69 -66c0 -34 25 -65 104 -70c127 -8 232 -94 232 -238c0 -145 -121 -249 -252 -249c-85 0 -170 31 -241 109l128 94
c34 -43 69 -54 113 -54c51 0 91 41 91 89c0 60 -40 97 -112 105z" />
    <glyph glyph-name="T" unicode="T" horiz-adv-x="573" 
d="M358 0h-155v605h-184v140h535v-140h-196v-605z" />
    <glyph glyph-name="U" unicode="U" horiz-adv-x="769" 
d="M386 -13c-218 0 -322 151 -322 358v400h155v-426c0 -117 57 -183 167 -183c116 0 166 71 166 183v426h153v-413c0 -217 -121 -345 -319 -345z" />
    <glyph glyph-name="V" unicode="V" horiz-adv-x="765" 
d="M398 308l213 437h160l-379 -758l-398 758h178z" />
    <glyph glyph-name="W" unicode="W" horiz-adv-x="1081" 
d="M714 308l212 437h161l-379 -758l-163 307l-153 -307l-398 758h178l226 -437l70 135l-158 302h178z" />
    <glyph glyph-name="X" unicode="X" horiz-adv-x="694" 
d="M240 383l-237 362h175l161 -249l157 249h164l-223 -353l255 -392h-174l-180 277l-173 -277h-164z" />
    <glyph glyph-name="Y" unicode="Y" horiz-adv-x="764" 
d="M389 379l218 366h163l-306 -505v-240h-154v226l-316 519h178z" />
    <glyph glyph-name="Z" unicode="Z" horiz-adv-x="682" 
d="M263 140h404v-140h-662l386 605h-348v140h611z" />
    <glyph glyph-name="bracketleft" unicode="[" horiz-adv-x="323" 
d="M286 -163h-215v921h215v-100h-98v-720h98v-101z" />
    <glyph glyph-name="backslash" unicode="\" horiz-adv-x="560" 
d="M591 -163h-132l-459 908h127z" />
    <glyph glyph-name="bracketright" unicode="]" horiz-adv-x="323" 
d="M251 -163h-215v101h98v720h-98v100h215v-921z" />
    <glyph glyph-name="asciicircum" unicode="^" horiz-adv-x="529" 
d="M264 1014l165 -206h-133l-32 43l-31 -43h-134z" />
    <glyph glyph-name="underscore" unicode="_" horiz-adv-x="698" 
d="M718 -59v-104h-738v104h738z" />
    <glyph glyph-name="grave" unicode="`" horiz-adv-x="761" 
d="M275 927l93 67l119 -186h-134z" />
    <glyph glyph-name="a" unicode="a" 
d="M400 505h142v-505h-142v36c-22 -29 -77 -47 -123 -47c-138 0 -248 119 -248 263c0 146 113 264 248 264c45 0 101 -22 123 -46v35zM291 130c66 0 115 50 115 122c0 71 -49 122 -115 122c-65 0 -118 -51 -118 -122c0 -72 53 -122 118 -122z" />
    <glyph glyph-name="b" unicode="b" 
d="M50 745h142v-275c22 24 78 46 123 46c135 0 248 -118 248 -264c0 -144 -110 -263 -248 -263c-46 0 -101 18 -123 47v-36h-142v745zM301 130c65 0 118 50 118 122c0 71 -53 122 -118 122c-66 0 -115 -51 -115 -122c0 -72 49 -122 115 -122z" />
    <glyph glyph-name="c" unicode="c" horiz-adv-x="585" 
d="M411 232h146c-10 -135 -127 -243 -266 -243c-145 0 -262 119 -262 263c0 146 117 264 262 264c83 0 158 -39 207 -99l-113 -88c-26 33 -59 45 -94 45c-65 0 -118 -51 -118 -122c0 -72 53 -122 118 -122c62 0 111 41 120 102z" />
    <glyph glyph-name="d" unicode="d" 
d="M400 745h142v-745h-142v36c-22 -29 -77 -47 -123 -47c-138 0 -248 119 -248 263c0 146 113 264 248 264c45 0 101 -22 123 -46v275zM291 130c66 0 115 50 115 122c0 71 -49 122 -115 122c-65 0 -118 -51 -118 -122c0 -72 53 -122 118 -122z" />
    <glyph glyph-name="e" unicode="e" horiz-adv-x="572" 
d="M412 181l113 -87c-43 -64 -132 -105 -222 -105c-152 0 -274 119 -274 263c0 146 117 264 262 264c125 0 221 -84 252 -178l-282 -202c13 -5 27 -6 42 -6c43 0 86 15 109 51zM173 252c0 -12 1 -23 4 -33l184 131c-20 15 -43 24 -70 24c-65 0 -118 -51 -118 -122z" />
    <glyph glyph-name="f" unicode="f" horiz-adv-x="356" 
d="M342 752v-146c-66 0 -109 -40 -109 -89v-12h99v-131h-99v-374h-142v374h-69v131h69v7c0 140 114 240 251 240z" />
    <glyph glyph-name="g" unicode="g" 
d="M284 -111c65 0 116 47 116 107v40c-22 -29 -77 -47 -123 -47c-138 0 -248 119 -248 263c0 146 113 264 248 264c45 0 101 -22 123 -46v35h142v-500c0 -141 -115 -257 -258 -257c-90 0 -168 46 -215 115l115 83c21 -35 58 -57 100 -57zM291 130c66 0 115 50 115 122
c0 71 -49 122 -115 122c-65 0 -118 -51 -118 -122c0 -72 53 -122 118 -122z" />
    <glyph glyph-name="h" unicode="h" horiz-adv-x="602" 
d="M559 252v-252h-141v252c0 81 -47 122 -105 122c-63 0 -121 -51 -121 -122v-252h-142v745h142v-276c27 33 87 47 133 47c138 0 234 -118 234 -264z" />
    <glyph glyph-name="i" unicode="i" horiz-adv-x="242" 
d="M120 594c-44 0 -82 37 -82 81c0 40 38 78 82 78c48 0 85 -37 85 -78c0 -44 -37 -81 -85 -81zM192 505v-505h-142v505h142z" />
    <glyph glyph-name="j" unicode="j" horiz-adv-x="242" 
d="M-54 -252v141c57 0 104 37 104 96v520h142v-512c0 -135 -110 -245 -246 -245zM120 594c-44 0 -82 37 -82 81c0 40 38 78 82 78c48 0 85 -37 85 -78c0 -44 -37 -81 -85 -81z" />
    <glyph glyph-name="k" unicode="k" horiz-adv-x="588" 
d="M232 178l-40 -38v-140h-142v745h142v-441l215 201h176l-254 -236l265 -269h-181z" />
    <glyph glyph-name="l" unicode="l" horiz-adv-x="242" 
d="M50 745h142v-745h-142v745z" />
    <glyph glyph-name="m" unicode="m" horiz-adv-x="940" 
d="M543 252v-252h-142v252c0 87 -45 122 -109 122c-53 0 -100 -55 -100 -122v-252h-142v505h142v-35c23 28 80 46 124 46c74 0 141 -34 171 -80c48 64 128 80 180 80c155 0 230 -118 230 -264v-252h-141v252c0 77 -47 122 -104 122c-62 0 -109 -55 -109 -122z" />
    <glyph glyph-name="n" unicode="n" horiz-adv-x="602" 
d="M559 252v-252h-141v252c0 81 -47 122 -105 122c-63 0 -121 -41 -121 -122v-252h-142v505h142v-35c28 32 87 46 133 46c138 0 234 -118 234 -264z" />
    <glyph glyph-name="o" unicode="o" horiz-adv-x="586" 
d="M291 516c145 0 266 -118 266 -264c0 -144 -121 -263 -266 -263s-262 119 -262 263c0 146 117 264 262 264zM291 130c69 0 121 50 121 122c0 71 -52 122 -121 122c-65 0 -118 -51 -118 -122c0 -72 53 -122 118 -122z" />
    <glyph glyph-name="p" unicode="p" 
d="M192 -241h-142v746h142v-35c22 24 77 46 123 46c139 0 248 -118 248 -262c0 -146 -113 -265 -251 -265c-42 0 -93 15 -120 47v-277zM301 374c-66 0 -115 -50 -115 -121c0 -72 49 -123 115 -123c65 0 118 51 118 123c0 71 -53 121 -118 121z" />
    <glyph glyph-name="q" unicode="q" 
d="M542 -241h-142v277c-27 -32 -78 -47 -120 -47c-138 0 -251 119 -251 265c0 144 109 262 248 262c46 0 101 -22 123 -46v35h142v-746zM291 374c-65 0 -118 -50 -118 -121c0 -72 53 -123 118 -123c66 0 115 51 115 123c0 71 -49 121 -115 121z" />
    <glyph glyph-name="r" unicode="r" horiz-adv-x="352" 
d="M339 514v-147c-14 5 -29 7 -45 7c-55 0 -102 -41 -102 -122v-252h-142v505h142v-35c31 33 73 46 112 46c12 0 22 0 35 -2z" />
    <glyph glyph-name="s" unicode="s" horiz-adv-x="402" 
d="M180 203c-92 13 -157 74 -157 160c0 88 91 153 166 153c65 0 115 -27 151 -79l-102 -74c-13 12 -27 21 -46 21s-30 -11 -30 -26c0 -17 12 -27 54 -32c93 -12 164 -60 164 -164c0 -103 -85 -173 -194 -173c-75 0 -130 26 -174 76l120 87c15 -16 33 -22 55 -22
c26 0 38 15 38 34c0 20 -13 34 -45 39z" />
    <glyph glyph-name="t" unicode="t" horiz-adv-x="361" 
d="M346 374h-120v-161c0 -57 52 -83 117 -83v-141c-151 0 -259 89 -259 220v165h-76v131h76v66l142 103v-169h120v-131z" />
    <glyph glyph-name="u" unicode="u" horiz-adv-x="602" 
d="M43 242v263h142v-251c0 -73 47 -124 104 -124c63 0 122 31 122 124v251h141v-505h-141v36c-29 -32 -93 -47 -141 -47c-133 0 -227 114 -227 253z" />
    <glyph glyph-name="v" unicode="v" horiz-adv-x="512" 
d="M272 262l108 243h138l-251 -518l-273 518h157z" />
    <glyph glyph-name="w" unicode="w" horiz-adv-x="741" 
d="M502 263l106 242h139l-251 -518l-114 238l-114 -238l-274 518h157l121 -243l46 98l-68 145h136z" />
    <glyph glyph-name="x" unicode="x" horiz-adv-x="519" 
d="M260 149l-96 -149h-166l183 269l-148 236h147l80 -132l79 132h148l-149 -236l184 -269h-166z" />
    <glyph glyph-name="y" unicode="y" horiz-adv-x="574" 
d="M221 48l-227 457h156l146 -313l143 313h141l-347 -746h-147z" />
    <glyph glyph-name="z" unicode="z" horiz-adv-x="469" 
d="M451 0h-443l225 374h-195v131h416l-210 -370h207v-135z" />
    <glyph glyph-name="braceleft" unicode="{" horiz-adv-x="354" 
d="M119 58v66c0 63 -36 126 -107 126v95c71 0 107 63 107 127v65c0 67 18 123 54 160c36 40 89 61 152 61v-106c-64 0 -96 -58 -96 -115v-65c0 -67 -20 -122 -54 -161c-3 -4 -9 -9 -14 -14l14 -13c34 -38 54 -93 54 -160v-66c0 -57 32 -114 96 -114v-107
c-63 0 -116 21 -152 61c-36 38 -54 94 -54 160z" />
    <glyph glyph-name="bar" unicode="|" horiz-adv-x="250" 
d="M179 744v-942h-108v942h108z" />
    <glyph glyph-name="braceright" unicode="}" horiz-adv-x="354" 
d="M235 58c0 -66 -18 -122 -54 -160c-36 -40 -89 -61 -152 -61v107c64 0 96 57 96 114v66c0 67 20 122 54 160l14 13c-5 5 -11 10 -14 14c-34 39 -54 94 -54 161v65c0 57 -32 115 -96 115v106c63 0 116 -21 152 -61c36 -37 54 -93 54 -160v-65c0 -64 36 -127 108 -127v-95
c-72 0 -108 -63 -108 -126v-66z" />
    <glyph glyph-name="asciitilde" unicode="~" horiz-adv-x="841" 
d="M289 813l-100 74c47 57 95 79 160 79c54 0 92 -36 136 -36c20 0 41 14 60 36l100 -72c-34 -45 -82 -86 -143 -86c-55 0 -86 41 -132 41c-32 0 -50 -10 -81 -36z" />
    <glyph glyph-name="Adieresis" unicode="&#xc4;" horiz-adv-x="775" 
d="M315 869c0 -38 -27 -64 -64 -64c-34 0 -62 25 -62 64c0 37 28 62 62 62c37 0 64 -25 64 -62zM575 869c0 -38 -28 -64 -64 -64c-33 0 -61 25 -61 64c0 37 28 62 61 62c36 0 64 -25 64 -62zM612 0l-49 100h-361l-48 -100h-160l393 758l394 -758h-169zM381 472l-112 -232
h226z" />
    <glyph glyph-name="Aring" unicode="&#xc5;" horiz-adv-x="775" 
d="M382 803c-59 0 -108 49 -108 108c0 64 49 113 108 113c64 0 113 -49 113 -113c0 -59 -49 -108 -113 -108zM382 943c-15 0 -28 -13 -28 -32c0 -15 13 -29 28 -29c18 0 29 14 29 29c0 19 -11 32 -29 32zM612 0l-49 100h-361l-48 -100h-160l393 758l394 -758h-169zM381 472
l-112 -232h226z" />
    <glyph glyph-name="Ccedilla" unicode="&#xc7;" horiz-adv-x="847" 
d="M650 329h157c-20 -175 -161 -318 -337 -339l-20 -25h148v-121h-364l102 154c-171 38 -296 192 -296 374c0 213 170 386 382 386c139 0 262 -72 329 -181l-121 -86c-54 80 -130 119 -207 119c-125 0 -224 -106 -224 -238c0 -131 99 -236 224 -236c112 0 206 81 227 193z
" />
    <glyph glyph-name="Eacute" unicode="&#xc9;" horiz-adv-x="573" 
d="M329 994l93 -67l-78 -119h-134zM533 0h-462v745h396v-140h-241v-139h280v-139h-280v-187h307v-140z" />
    <glyph glyph-name="Ntilde" unicode="&#xd1;" horiz-adv-x="827" 
d="M282 813l-100 74c47 57 95 79 159 79c55 0 93 -36 137 -36c20 0 41 14 60 36l99 -72c-33 -45 -81 -86 -142 -86c-55 0 -86 41 -132 41c-32 0 -50 -10 -81 -36zM601 314v431h155v-758l-530 441v-428h-155v759z" />
    <glyph glyph-name="Odieresis" unicode="&#xd6;" horiz-adv-x="851" 
d="M426 -13c-214 0 -386 173 -386 386s172 385 385 385c214 0 386 -172 386 -385s-172 -386 -385 -386zM425 610c-127 0 -226 -106 -226 -237c0 -133 99 -237 227 -237c126 0 226 104 226 237c0 131 -101 237 -227 237zM359 869c0 -38 -27 -64 -63 -64c-34 0 -62 25 -62 64
c0 37 28 62 62 62c36 0 63 -25 63 -62zM620 869c0 -38 -28 -64 -64 -64c-33 0 -61 25 -61 64c0 37 28 62 61 62c36 0 64 -25 64 -62z" />
    <glyph glyph-name="Udieresis" unicode="&#xdc;" horiz-adv-x="769" 
d="M386 -13c-218 0 -322 151 -322 358v400h155v-426c0 -117 57 -183 167 -183c116 0 166 71 166 183v426h153v-413c0 -217 -121 -345 -319 -345zM323 869c0 -38 -27 -64 -63 -64c-34 0 -62 25 -62 64c0 37 28 62 62 62c36 0 63 -25 63 -62zM584 869c0 -38 -28 -64 -65 -64
c-32 0 -61 25 -61 64c0 37 29 62 61 62c37 0 65 -25 65 -62z" />
    <glyph glyph-name="aacute" unicode="&#xe1;" 
d="M356 760l93 -67l-78 -119h-134zM400 505h142v-505h-142v36c-22 -29 -77 -47 -123 -47c-138 0 -248 119 -248 263c0 146 113 264 248 264c45 0 101 -22 123 -46v35zM291 130c66 0 115 50 115 122c0 71 -49 122 -115 122c-65 0 -118 -51 -118 -122c0 -72 53 -122 118 -122z
" />
    <glyph glyph-name="agrave" unicode="&#xe0;" 
d="M182 693l94 67l118 -186h-133zM400 505h142v-505h-142v36c-22 -29 -77 -47 -123 -47c-138 0 -248 119 -248 263c0 146 113 264 248 264c45 0 101 -22 123 -46v35zM291 130c66 0 115 50 115 122c0 71 -49 122 -115 122c-65 0 -118 -51 -118 -122c0 -72 53 -122 118 -122z
" />
    <glyph glyph-name="acircumflex" unicode="&#xe2;" 
d="M299 780l165 -206h-133l-32 43l-31 -43h-134zM400 505h142v-505h-142v36c-22 -29 -77 -47 -123 -47c-138 0 -248 119 -248 263c0 146 113 264 248 264c45 0 101 -22 123 -46v35zM291 130c66 0 115 50 115 122c0 71 -49 122 -115 122c-65 0 -118 -51 -118 -122
c0 -72 53 -122 118 -122z" />
    <glyph glyph-name="adieresis" unicode="&#xe4;" 
d="M236 635c0 -38 -27 -64 -63 -64c-34 0 -62 25 -62 64c0 37 28 62 62 62c36 0 63 -25 63 -62zM497 635c0 -38 -28 -64 -64 -64c-33 0 -61 25 -61 64c0 37 28 62 61 62c36 0 64 -25 64 -62zM400 505h142v-505h-142v36c-22 -29 -77 -47 -123 -47c-138 0 -248 119 -248 263
c0 146 113 264 248 264c45 0 101 -22 123 -46v35zM291 130c66 0 115 50 115 122c0 71 -49 122 -115 122c-65 0 -118 -51 -118 -122c0 -72 53 -122 118 -122z" />
    <glyph glyph-name="atilde" unicode="&#xe3;" 
d="M184 579l-100 74c47 57 95 79 159 79c55 0 93 -36 137 -36c20 0 41 14 60 36l99 -72c-34 -45 -82 -86 -143 -86c-55 0 -85 41 -132 41c-31 0 -49 -10 -80 -36zM400 505h142v-505h-142v36c-22 -29 -77 -47 -123 -47c-138 0 -248 119 -248 263c0 146 113 264 248 264
c45 0 101 -22 123 -46v35zM291 130c66 0 115 50 115 122c0 71 -49 122 -115 122c-65 0 -118 -51 -118 -122c0 -72 53 -122 118 -122z" />
    <glyph glyph-name="aring" unicode="&#xe5;" 
d="M296 569c-60 0 -109 49 -109 108c0 64 49 113 109 113c63 0 112 -49 112 -113c0 -59 -49 -108 -112 -108zM296 709c-15 0 -28 -13 -28 -32c0 -15 13 -29 28 -29c17 0 28 14 28 29c0 19 -11 32 -28 32zM400 505h142v-505h-142v36c-22 -29 -77 -47 -123 -47
c-138 0 -248 119 -248 263c0 146 113 264 248 264c45 0 101 -22 123 -46v35zM291 130c66 0 115 50 115 122c0 71 -49 122 -115 122c-65 0 -118 -51 -118 -122c0 -72 53 -122 118 -122z" />
    <glyph glyph-name="ccedilla" unicode="&#xe7;" horiz-adv-x="586" 
d="M411 232h146c-9 -120 -102 -218 -219 -238l-21 -29h147v-121h-364l106 160c-103 35 -177 133 -177 248c0 146 117 264 262 264c83 0 158 -39 207 -99l-114 -89c-21 31 -58 46 -93 46c-65 0 -118 -51 -118 -122c0 -72 53 -122 118 -122c62 0 111 41 120 102z" />
    <glyph glyph-name="eacute" unicode="&#xe9;" horiz-adv-x="572" 
d="M412 181l113 -87c-43 -64 -132 -105 -222 -105c-152 0 -274 119 -274 263c0 146 117 264 262 264c125 0 221 -84 252 -178l-282 -202c13 -5 27 -6 42 -6c43 0 86 15 109 51zM301 760l93 -67l-78 -119h-134zM173 252c0 -9 1 -16 2 -23l178 127c-17 11 -38 18 -62 18
c-65 0 -118 -51 -118 -122z" />
    <glyph glyph-name="egrave" unicode="&#xe8;" horiz-adv-x="572" 
d="M412 181l113 -87c-43 -64 -132 -105 -222 -105c-152 0 -274 119 -274 263c0 146 117 264 262 264c125 0 221 -84 252 -178l-282 -202c13 -5 27 -6 42 -6c43 0 86 15 109 51zM147 693l94 67l118 -186h-133zM173 252c0 -9 1 -16 2 -23l178 127c-17 11 -38 18 -62 18
c-65 0 -118 -51 -118 -122z" />
    <glyph glyph-name="ecircumflex" unicode="&#xea;" horiz-adv-x="572" 
d="M412 181l113 -87c-43 -64 -132 -105 -222 -105c-152 0 -274 119 -274 263c0 146 117 264 262 264c125 0 221 -84 252 -178l-282 -202c13 -5 27 -6 42 -6c43 0 86 15 109 51zM276 780l165 -206h-133l-32 43l-32 -43h-133zM173 252c0 -9 1 -16 2 -23l178 127
c-17 11 -38 18 -62 18c-65 0 -118 -51 -118 -122z" />
    <glyph glyph-name="edieresis" unicode="&#xeb;" horiz-adv-x="572" 
d="M412 181l113 -87c-43 -64 -132 -105 -222 -105c-152 0 -274 119 -274 263c0 146 117 264 262 264c125 0 221 -84 252 -178l-282 -202c13 -5 27 -6 42 -6c43 0 86 15 109 51zM210 635c0 -38 -26 -64 -63 -64c-34 0 -62 25 -62 64c0 37 28 62 62 62c37 0 63 -25 63 -62z
M471 635c0 -38 -28 -64 -64 -64c-33 0 -61 25 -61 64c0 37 28 62 61 62c36 0 64 -25 64 -62zM173 252c0 -9 1 -16 2 -23l178 127c-17 11 -38 18 -62 18c-65 0 -118 -51 -118 -122z" />
    <glyph glyph-name="iacute" unicode="&#xed;" horiz-adv-x="242" 
d="M168 760l94 -67l-78 -119h-134zM192 505v-505h-142v505h142z" />
    <glyph glyph-name="igrave" unicode="&#xec;" horiz-adv-x="242" 
d="M192 505v-505h-142v505h142zM-20 693l94 67l118 -186h-133z" />
    <glyph glyph-name="icircumflex" unicode="&#xee;" horiz-adv-x="242" 
d="M192 505v-505h-142v505h142zM123 780l165 -206h-134l-31 43l-32 -43h-133z" />
    <glyph glyph-name="idieresis" unicode="&#xef;" horiz-adv-x="242" 
d="M192 505v-505h-142v505h142zM54 635c0 -38 -27 -64 -63 -64c-34 0 -62 25 -62 64c0 37 28 62 62 62c36 0 63 -25 63 -62zM315 635c0 -38 -28 -64 -65 -64c-32 0 -60 25 -60 64c0 37 28 62 60 62c37 0 65 -25 65 -62z" />
    <glyph glyph-name="ntilde" unicode="&#xf1;" horiz-adv-x="602" 
d="M160 579l-99 74c46 57 94 79 159 79c55 0 92 -36 137 -36c20 0 41 14 59 36l100 -72c-34 -45 -82 -86 -143 -86c-55 0 -85 41 -132 41c-32 0 -49 -10 -81 -36zM559 252v-252h-141v252c0 81 -47 122 -105 122c-63 0 -121 -41 -121 -122v-252h-142v505h142v-35
c28 32 87 46 133 46c138 0 234 -118 234 -264z" />
    <glyph glyph-name="oacute" unicode="&#xf3;" horiz-adv-x="586" 
d="M291 516c145 0 266 -118 266 -264c0 -144 -121 -263 -266 -263s-262 119 -262 263c0 146 117 264 262 264zM291 130c69 0 121 50 121 122c0 71 -52 122 -121 122c-65 0 -118 -51 -118 -122c0 -72 53 -122 118 -122zM344 760l93 -67l-78 -119h-133z" />
    <glyph glyph-name="ograve" unicode="&#xf2;" horiz-adv-x="586" 
d="M291 516c145 0 266 -118 266 -264c0 -144 -121 -263 -266 -263s-262 119 -262 263c0 146 117 264 262 264zM291 130c69 0 121 50 121 122c0 71 -52 122 -121 122c-65 0 -118 -51 -118 -122c0 -72 53 -122 118 -122zM136 693l93 67l118 -186h-133z" />
    <glyph glyph-name="ocircumflex" unicode="&#xf4;" horiz-adv-x="586" 
d="M291 516c145 0 266 -118 266 -264c0 -144 -121 -263 -266 -263s-262 119 -262 263c0 146 117 264 262 264zM291 130c69 0 121 50 121 122c0 71 -52 122 -121 122c-65 0 -118 -51 -118 -122c0 -72 53 -122 118 -122zM288 780l165 -206h-134l-31 43l-32 -43h-133z" />
    <glyph glyph-name="odieresis" unicode="&#xf6;" horiz-adv-x="586" 
d="M291 516c145 0 266 -118 266 -264c0 -144 -121 -263 -266 -263s-262 119 -262 263c0 146 117 264 262 264zM291 130c69 0 121 50 121 122c0 71 -52 122 -121 122c-65 0 -118 -51 -118 -122c0 -72 53 -122 118 -122zM222 635c0 -38 -27 -64 -63 -64c-34 0 -62 25 -62 64
c0 37 28 62 62 62c36 0 63 -25 63 -62zM483 635c0 -38 -28 -64 -64 -64c-33 0 -61 25 -61 64c0 37 28 62 61 62c36 0 64 -25 64 -62z" />
    <glyph glyph-name="otilde" unicode="&#xf5;" horiz-adv-x="586" 
d="M291 516c145 0 266 -118 266 -264c0 -144 -121 -263 -266 -263s-262 119 -262 263c0 146 117 264 262 264zM291 130c69 0 121 50 121 122c0 71 -52 122 -121 122c-65 0 -118 -51 -118 -122c0 -72 53 -122 118 -122zM172 579l-100 74c47 57 95 79 160 79
c54 0 92 -36 136 -36c20 0 41 14 60 36l100 -72c-34 -45 -82 -86 -143 -86c-55 0 -86 41 -132 41c-32 0 -50 -10 -81 -36z" />
    <glyph glyph-name="uacute" unicode="&#xfa;" horiz-adv-x="602" 
d="M347 760l94 -67l-78 -119h-134zM43 242v263h142v-251c0 -73 47 -124 104 -124c63 0 122 31 122 124v251h141v-505h-141v36c-29 -32 -93 -47 -141 -47c-133 0 -227 114 -227 253z" />
    <glyph glyph-name="ugrave" unicode="&#xf9;" horiz-adv-x="602" 
d="M159 693l94 67l118 -186h-134zM43 242v263h142v-251c0 -73 47 -124 104 -124c63 0 122 31 122 124v251h141v-505h-141v36c-29 -32 -93 -47 -141 -47c-133 0 -227 114 -227 253z" />
    <glyph glyph-name="ucircumflex" unicode="&#xfb;" horiz-adv-x="602" 
d="M299 780l165 -206h-133l-32 43l-31 -43h-134zM43 242v263h142v-251c0 -73 47 -124 104 -124c63 0 122 31 122 124v251h141v-505h-141v36c-29 -32 -93 -47 -141 -47c-133 0 -227 114 -227 253z" />
    <glyph glyph-name="udieresis" unicode="&#xfc;" horiz-adv-x="602" 
d="M229 635c0 -38 -27 -64 -63 -64c-34 0 -62 25 -62 64c0 37 28 62 62 62c36 0 63 -25 63 -62zM490 635c0 -38 -28 -64 -64 -64c-33 0 -61 25 -61 64c0 37 28 62 61 62c36 0 64 -25 64 -62zM43 242v263h142v-251c0 -73 47 -124 104 -124c63 0 122 31 122 124v251h141v-505
h-141v36c-29 -32 -93 -47 -141 -47c-133 0 -227 114 -227 253z" />
    <glyph glyph-name="dagger" unicode="&#x2020;" horiz-adv-x="510" 
d="M463 447h-143v-447h-131v447h-142v113h142v185h131v-185h143v-113z" />
    <glyph glyph-name="degree" unicode="&#xb0;" horiz-adv-x="338" 
d="M157 528c-62 0 -114 51 -114 113c0 66 52 117 114 117c65 0 117 -51 117 -117c0 -62 -52 -113 -117 -113zM157 674c-17 0 -30 -13 -30 -33c0 -16 13 -30 30 -30c18 0 29 14 29 30c0 20 -11 33 -29 33z" />
    <glyph glyph-name="cent" unicode="&#xa2;" horiz-adv-x="847" 
d="M650 329h157c-20 -175 -158 -315 -332 -338v-76h-108v77c-186 26 -327 186 -327 380s141 355 327 381v73h108v-71c117 -17 218 -83 276 -178l-121 -86c-54 80 -130 119 -207 119c-125 0 -224 -106 -224 -238c0 -131 99 -236 224 -236c112 0 206 81 227 193z" />
    <glyph glyph-name="sterling" unicode="&#xa3;" horiz-adv-x="630" 
d="M47 292v141h62v86c0 139 120 238 251 238c76 0 155 -30 218 -109l-121 -88c-28 36 -59 48 -97 48c-52 0 -97 -41 -97 -89v-86h121v-141h-121v-152h119c40 0 73 13 102 54l116 -85c-63 -79 -142 -109 -218 -109h-335v140h62v152h-62z" />
    <glyph glyph-name="section" unicode="&#xa7;" horiz-adv-x="550" 
d="M267 813c114 0 206 -95 206 -221h-119c0 54 -39 101 -87 101c-53 0 -86 -38 -86 -83s41 -85 89 -85c121 0 217 -96 217 -215c0 -61 -25 -115 -66 -153c39 -38 66 -90 66 -144c0 -114 -98 -205 -213 -205s-205 96 -205 221h118c0 -52 40 -100 87 -100c53 0 86 37 86 84
c0 43 -41 83 -90 83c-117 0 -213 96 -213 214c0 59 24 115 62 154c-41 38 -64 89 -64 146c0 113 97 203 212 203zM272 405c-46 0 -88 -43 -88 -95c0 -51 40 -96 90 -96s87 46 87 96c0 52 -39 95 -89 95z" />
    <glyph glyph-name="bullet" unicode="&#x2022;" horiz-adv-x="273" 
d="M137 448c59 0 100 -44 100 -101c0 -53 -39 -99 -100 -99c-60 0 -101 46 -101 99c0 57 41 101 101 101z" />
    <glyph glyph-name="paragraph" unicode="&#xb6;" horiz-adv-x="681" 
d="M291 745h346v-87h-70v-658h-87v658h-101v-658h-88v219h-12c-138 0 -250 118 -250 264c0 144 117 262 262 262z" />
    <glyph glyph-name="germandbls" unicode="&#xdf;" horiz-adv-x="985" 
d="M47 292v141h58v86c0 139 121 238 252 238c73 0 141 -27 189 -74c41 31 90 49 137 49c68 0 134 -25 186 -84l-119 -86c-19 16 -45 27 -67 27c-37 0 -65 -19 -65 -65c0 -31 24 -62 100 -67c121 -8 224 -91 224 -229c0 -140 -116 -241 -245 -241c-82 0 -164 29 -231 105
l121 91c34 -41 68 -53 110 -53c53 0 91 40 91 86c0 60 -38 94 -111 102c-128 15 -214 93 -214 207c0 49 -49 83 -98 83c-48 0 -105 -31 -105 -89v-519h-155v292h-58z" />
    <glyph glyph-name="registered" unicode="&#xae;" horiz-adv-x="851" 
d="M426 -13c-214 0 -386 173 -386 386s172 385 385 385c214 0 386 -172 386 -385s-172 -386 -385 -386zM425 663c-156 0 -277 -130 -277 -290c0 -163 121 -290 278 -290c155 0 277 127 277 290c0 160 -124 290 -278 290zM411 256h-21v-60h-94v371h130c89 0 158 -63 158 -149
c0 -57 -31 -108 -73 -133l85 -89h-127zM390 344h18c50 0 78 24 78 68c0 38 -22 68 -64 68h-32v-136z" />
    <glyph glyph-name="copyright" unicode="&#xa9;" horiz-adv-x="851" 
d="M426 -13c-214 0 -386 173 -386 386s172 385 385 385c214 0 386 -172 386 -385s-172 -386 -385 -386zM425 663c-156 0 -277 -130 -277 -290c0 -163 121 -290 278 -290c155 0 277 127 277 290c0 160 -124 290 -278 290zM527 346h102c-14 -99 -93 -177 -201 -177
c-111 0 -200 90 -200 201c0 109 89 201 200 201c68 0 134 -36 172 -95l-79 -57c-30 42 -56 57 -93 57c-56 0 -100 -48 -100 -106c0 -57 44 -106 100 -106c45 0 86 36 99 82z" />
    <glyph glyph-name="trademark" unicode="&#x2122;" horiz-adv-x="851" 
d="M215 340h-103v309h-93v96h290v-96h-94v-309zM566 596l214 162v-418h-100v215l-114 -81l-112 81v-215h-104v418z" />
    <glyph glyph-name="acute" unicode="&#xb4;" horiz-adv-x="901" 
d="M464 994l94 -67l-78 -119h-134z" />
    <glyph glyph-name="dieresis" unicode="&#xa8;" horiz-adv-x="719" 
d="M284 869c0 -38 -27 -64 -63 -64c-34 0 -62 25 -62 64c0 37 28 62 62 62c36 0 63 -25 63 -62zM545 869c0 -38 -28 -64 -64 -64c-33 0 -61 25 -61 64c0 37 28 62 61 62c36 0 64 -25 64 -62z" />
    <glyph glyph-name="notequal" unicode="&#x2260;" horiz-adv-x="578" 
d="M235 103h-125l34 77h-80v112h131l55 122h-186v112h237l37 84h119l-36 -84h92v-112h-142l-53 -122h195v-112h-244z" />
    <glyph glyph-name="AE" unicode="&#xc6;" horiz-adv-x="1114" 
d="M1074 0h-462l-49 100h-361l-48 -100h-160l393 758l225 -432v419h395v-140h-241v-139h281v-139h-281v-187h308v-140zM381 472l-112 -232h226z" />
    <glyph glyph-name="Oslash" unicode="&#xd8;" horiz-adv-x="851" 
d="M240 -13h-173l83 116c-68 69 -110 165 -110 270c0 213 172 385 385 385c60 0 118 -14 168 -38l19 25h171l-78 -107c66 -69 106 -163 106 -265c0 -213 -172 -386 -385 -386c-58 0 -113 13 -162 35zM425 610c-127 0 -226 -106 -226 -237c0 -54 16 -103 43 -143l261 364
c-25 10 -52 16 -78 16zM652 373c0 49 -16 96 -40 134l-258 -360c23 -8 46 -11 72 -11c126 0 226 104 226 237z" />
    <glyph glyph-name="infinity" unicode="&#x221e;" horiz-adv-x="965" 
d="M685 25c-84 0 -157 41 -203 104c-45 -63 -117 -104 -200 -104c-139 0 -249 112 -249 248c0 138 110 248 248 248c83 0 156 -41 201 -103c46 62 118 103 202 103c138 0 248 -110 248 -248c0 -136 -110 -248 -247 -248zM281 413c-73 0 -134 -63 -134 -140
c0 -78 61 -140 135 -140c81 0 144 62 144 140c0 77 -65 140 -145 140zM684 413c-78 0 -145 -63 -145 -140c0 -78 67 -140 146 -140c74 0 133 62 133 140c0 77 -60 140 -134 140z" />
    <glyph glyph-name="plusminus" unicode="&#xb1;" horiz-adv-x="613" 
d="M363 228h-113v186h-186v112h186v187h113v-187h186v-112h-186v-186zM549 152v-112h-485v112h485z" />
    <glyph glyph-name="lessequal" unicode="&#x2264;" horiz-adv-x="417" 
d="M42 449l311 266v-132l-158 -134l158 -131v-134zM353 142v-102h-317v102h317z" />
    <glyph glyph-name="greaterequal" unicode="&#x2265;" horiz-adv-x="417" 
d="M64 715l311 -266l-311 -265v134l158 131l-158 134v132zM64 40v102h317v-102h-317z" />
    <glyph glyph-name="yen" unicode="&#xa5;" horiz-adv-x="764" 
d="M167 152v129h130l-303 464h178l221 -348l218 348h159l-302 -464h138v-129h-142v-152h-154v152h-143z" />
    <glyph glyph-name="mu" unicode="&#xb5;" horiz-adv-x="602" 
d="M55 -241v746h130v-269c0 -68 48 -117 104 -117c63 0 122 52 122 123v263h129v-505h-129v36c-29 -32 -93 -47 -141 -47c-30 0 -60 9 -85 24v-254h-130z" />
    <glyph glyph-name="partialdiff" unicode="&#x2202;" horiz-adv-x="607" 
d="M427 466c0 99 -71 141 -151 148v114c90 0 183 -44 234 -129c38 -63 47 -159 47 -257v-90c0 -144 -121 -263 -266 -263s-262 119 -262 263c0 146 117 264 262 264c53 0 95 -19 136 -50zM291 121c74 0 129 54 129 131c0 76 -55 132 -129 132c-70 0 -127 -56 -127 -132
c0 -77 57 -131 127 -131z" />
    <glyph glyph-name="summation" unicode="&#x2211;" horiz-adv-x="551" 
d="M388 374l-158 -257h295v-117h-513l234 376l-234 369h513v-117h-295z" />
    <glyph glyph-name="product" unicode="&#x220f;" horiz-adv-x="730" 
d="M213 0h-142v745h587v-745h-142v612h-303v-612z" />
    <glyph glyph-name="pi" unicode="&#x3c0;" horiz-adv-x="848" 
d="M272 0h-142v612h-90v133h768v-133h-91v-612h-143v612h-302v-612z" />
    <glyph glyph-name="integral" unicode="&#x222b;" horiz-adv-x="486" 
d="M89 -87v725c0 119 104 204 216 204c66 0 134 -25 187 -93l-103 -76c-24 30 -51 42 -84 42c-45 0 -83 -35 -83 -77v-725c0 -119 -104 -204 -216 -204c-66 0 -134 25 -188 93l103 76c25 -30 52 -42 85 -42c45 0 83 35 83 77z" />
    <glyph glyph-name="ordfeminine" unicode="&#xaa;" horiz-adv-x="495" 
d="M30 152v107h435v-107h-435zM351 340l-26 51h-162l-24 -51h-109l218 413l216 -413h-113zM244 556l-35 -70h69z" />
    <glyph glyph-name="ordmasculine" unicode="&#xba;" horiz-adv-x="459" 
d="M30 152v107h399v-107h-399zM229 333c-115 0 -209 94 -209 209c0 117 94 210 209 210c117 0 210 -93 210 -210c0 -115 -93 -209 -210 -209zM231 643c-52 0 -96 -46 -96 -101c0 -53 44 -102 96 -102s96 49 96 102c0 55 -44 101 -96 101z" />
    <glyph glyph-name="uni03A9" unicode="&#x3a9;" horiz-adv-x="827" 
d="M495 0v108c95 37 161 144 161 276c0 142 -109 256 -243 256c-135 0 -244 -114 -244 -256c0 -131 67 -239 162 -276v-108h-268v108h91c-71 73 -114 170 -114 276c0 207 167 374 373 374c207 0 374 -167 374 -374c0 -107 -44 -204 -116 -276h92v-108h-268z" />
    <glyph glyph-name="ae" unicode="&#xe6;" horiz-adv-x="954" 
d="M400 505h142v-32c26 27 83 43 132 43c125 0 221 -84 251 -178l-282 -202c13 -5 27 -6 42 -6c44 0 87 15 109 51l114 -87c-44 -64 -132 -105 -223 -105c-53 0 -114 17 -143 46v-35h-142v36c-27 -29 -84 -47 -124 -47c-136 0 -247 119 -247 263c0 146 117 264 262 264
c34 0 83 -13 109 -43v32zM291 130c67 0 118 48 121 116v6c0 71 -52 122 -121 122c-65 0 -118 -51 -118 -122c0 -72 53 -122 118 -122zM556 252c0 -9 1 -16 2 -23l178 127c-18 11 -39 18 -62 18c-66 0 -118 -51 -118 -122z" />
    <glyph glyph-name="oslash" unicode="&#xf8;" horiz-adv-x="586" 
d="M291 516c28 0 55 -5 81 -13l8 13h126l-38 -68c54 -49 89 -118 89 -196c0 -144 -121 -263 -266 -263c-27 0 -54 5 -78 12l-6 -12h-132l40 68c-53 48 -86 117 -86 195c0 146 117 264 262 264zM291 130c69 0 121 50 121 122c0 24 -7 48 -19 66l-107 -188h5zM173 252
c0 -25 6 -47 16 -65l109 187h-7c-65 0 -118 -51 -118 -122z" />
    <glyph glyph-name="questiondown" unicode="&#xbf;" horiz-adv-x="441" 
d="M326 511v-227h-83c-49 0 -83 -38 -83 -84c0 -53 35 -88 83 -88c29 0 55 16 69 41l103 -75c-38 -55 -102 -91 -172 -91c-120 0 -214 95 -214 214c0 99 69 183 166 204v106h131zM261 605c-46 0 -77 34 -77 77c0 41 30 76 77 76c45 0 77 -35 77 -76c0 -43 -32 -77 -77 -77z
" />
    <glyph glyph-name="exclamdown" unicode="&#xa1;" horiz-adv-x="231" 
d="M181 510v-510h-131v510h131zM116 605c-46 0 -78 34 -78 77c0 41 31 76 78 76c45 0 77 -35 77 -76c0 -43 -32 -77 -77 -77z" />
    <glyph glyph-name="logicalnot" unicode="&#xac;" horiz-adv-x="498" 
d="M480 460v-196h-101v95h-364v101h465z" />
    <glyph glyph-name="radical" unicode="&#x221a;" horiz-adv-x="764" 
d="M213 409l125 -246l342 679h114l-458 -909l-190 376h-95v100h162z" />
    <glyph glyph-name="florin" unicode="&#x192;" horiz-adv-x="418" 
d="M117 4v360h-62v141h62v14c0 139 120 238 251 238v-149c-52 0 -97 -41 -97 -89v-14h91v-141h-91v-360c0 -139 -120 -238 -251 -238v149c52 0 97 41 97 89z" />
    <glyph glyph-name="approxequal" unicode="&#x2248;" horiz-adv-x="584" 
d="M164 404l-100 73c47 58 95 80 159 80c55 0 93 -36 137 -36c20 0 41 14 60 36l99 -73c-34 -44 -82 -85 -142 -85c-55 0 -86 41 -133 41c-31 0 -49 -11 -80 -36zM164 170l-100 73c47 58 95 80 159 80c55 0 93 -36 137 -36c20 0 41 14 60 36l99 -73
c-34 -44 -82 -85 -142 -85c-55 0 -86 41 -133 41c-31 0 -49 -11 -80 -36z" />
    <glyph glyph-name="Delta" unicode="&#x2206;" horiz-adv-x="757" 
d="M210 140h335l-166 343zM759 0h-761l381 758z" />
    <glyph glyph-name="guillemotleft" unicode="&#xab;" horiz-adv-x="719" 
d="M12 372l311 266l63 -92l-209 -174l209 -174l-63 -92zM316 372l311 266l63 -92l-209 -174l209 -174l-63 -92z" />
    <glyph glyph-name="guillemotright" unicode="&#xbb;" horiz-adv-x="719" 
d="M396 638l312 -266l-312 -266l-63 92l210 174l-210 174zM92 638l311 -266l-311 -266l-63 92l210 174l-210 174z" />
    <glyph glyph-name="ellipsis" unicode="&#x2026;" horiz-adv-x="922" 
d="M152 140c46 0 77 -34 77 -77c0 -41 -30 -76 -77 -76c-46 0 -77 35 -77 76c0 43 31 77 77 77zM461 140c45 0 77 -34 77 -77c0 -41 -30 -76 -77 -76c-46 0 -77 35 -77 76c0 43 31 77 77 77zM770 140c45 0 77 -34 77 -77c0 -41 -30 -76 -77 -76c-46 0 -78 35 -78 76
c0 43 32 77 78 77z" />
    <glyph glyph-name="Agrave" unicode="&#xc0;" horiz-adv-x="775" 
d="M234 927l93 67l119 -186h-134zM612 0l-49 100h-361l-48 -100h-160l393 758l394 -758h-169zM381 472l-112 -232h226z" />
    <glyph glyph-name="Atilde" unicode="&#xc3;" horiz-adv-x="775" 
d="M270 813l-99 74c46 57 94 79 159 79c55 0 92 -36 137 -36c20 0 41 14 59 36l100 -72c-34 -45 -82 -86 -143 -86c-55 0 -85 41 -132 41c-32 0 -49 -10 -81 -36zM612 0l-49 100h-361l-48 -100h-160l393 758l394 -758h-169zM381 472l-112 -232h226z" />
    <glyph glyph-name="Otilde" unicode="&#xd5;" horiz-adv-x="851" 
d="M426 -13c-214 0 -386 173 -386 386s172 385 385 385c214 0 386 -172 386 -385s-172 -386 -385 -386zM425 610c-127 0 -226 -106 -226 -237c0 -133 99 -237 227 -237c126 0 226 104 226 237c0 131 -101 237 -227 237zM324 813l-100 74c47 57 95 79 159 79
c55 0 93 -36 137 -36c20 0 41 14 60 36l100 -72c-34 -45 -82 -86 -143 -86c-55 0 -86 41 -132 41c-32 0 -50 -10 -81 -36z" />
    <glyph glyph-name="OE" unicode="&#x152;" horiz-adv-x="1153" 
d="M1114 0h-462v66c-64 -50 -142 -79 -226 -79c-214 0 -386 173 -386 386s172 385 385 385c85 0 163 -30 227 -79v66h395v-140h-241v-139h281v-139h-281v-187h308v-140zM425 610c-127 0 -226 -106 -226 -237c0 -133 99 -237 227 -237c126 0 226 104 226 237v10
c-5 126 -105 227 -227 227z" />
    <glyph glyph-name="oe" unicode="&#x153;" horiz-adv-x="956" 
d="M795 181l114 -87c-43 -64 -132 -105 -222 -105c-81 0 -152 33 -202 85c-49 -52 -118 -85 -194 -85c-145 0 -262 119 -262 263c0 146 117 264 262 264c75 0 144 -33 192 -83c48 51 116 83 192 83c125 0 221 -84 251 -178l-281 -202c12 -5 26 -6 42 -6c43 0 86 15 108 51z
M291 130c69 0 121 50 121 122c0 71 -52 122 -121 122c-65 0 -118 -51 -118 -122c0 -72 53 -122 118 -122zM557 252v-6c0 -6 1 -11 2 -17l178 127c-18 11 -39 18 -62 18c-66 0 -118 -51 -118 -122z" />
    <glyph glyph-name="endash" unicode="&#x2013;" horiz-adv-x="705" 
d="M634 352v-100h-563v100h563z" />
    <glyph glyph-name="emdash" unicode="&#x2014;" horiz-adv-x="1080" 
d="M1008 352v-100h-937v100h937z" />
    <glyph glyph-name="quotedblleft" unicode="&#x201c;" horiz-adv-x="426" 
d="M325 758h86v-227h-156zM138 758h97l-47 -227h-155z" />
    <glyph glyph-name="quotedblright" unicode="&#x201d;" horiz-adv-x="401" 
d="M115 531h-86v227h156zM302 531h-97l46 227h156z" />
    <glyph glyph-name="quoteleft" unicode="&#x2018;" horiz-adv-x="210" 
d="M103 758h85v-227h-155z" />
    <glyph glyph-name="quoteright" unicode="&#x2019;" horiz-adv-x="200" 
d="M118 531h-85v227h155z" />
    <glyph glyph-name="divide" unicode="&#xf7;" horiz-adv-x="578" 
d="M531 409v-112h-484v112h484zM296 239c45 0 76 -32 76 -75c0 -40 -29 -73 -76 -73c-42 0 -73 33 -73 73c0 43 31 75 73 75zM296 615c45 0 76 -32 76 -76c0 -38 -29 -71 -76 -71c-42 0 -73 33 -73 71c0 44 31 76 73 76z" />
    <glyph glyph-name="lozenge" unicode="&#x25ca;" horiz-adv-x="682" 
d="M137 374l204 -230l206 230l-206 226zM-6 374l349 384l345 -384l-345 -383z" />
    <glyph glyph-name="ydieresis" unicode="&#xff;" horiz-adv-x="574" 
d="M224 635c0 -38 -26 -64 -63 -64c-34 0 -62 25 -62 64c0 37 28 62 62 62c37 0 63 -25 63 -62zM485 635c0 -38 -28 -64 -64 -64c-33 0 -61 25 -61 64c0 37 28 62 61 62c36 0 64 -25 64 -62zM221 48l-227 457h156l146 -313l143 313h141l-347 -746h-147z" />
    <glyph glyph-name="Ydieresis" unicode="&#x178;" horiz-adv-x="764" 
d="M322 869c0 -38 -27 -64 -64 -64c-34 0 -62 25 -62 64c0 37 28 62 62 62c37 0 64 -25 64 -62zM583 869c0 -38 -29 -64 -65 -64c-33 0 -61 25 -61 64c0 37 28 62 61 62c36 0 65 -25 65 -62zM389 379l218 366h163l-306 -505v-240h-154v226l-316 519h178z" />
    <glyph glyph-name="fraction" unicode="&#x2044;" horiz-adv-x="217" 
d="M14 0h-125l334 745h120z" />
    <glyph glyph-name="Euro" unicode="&#x20ac;" horiz-adv-x="760" 
d="M29 386v129h86c56 143 194 243 355 243c105 0 199 -49 265 -127l-123 -90c-35 42 -86 69 -141 69c-75 0 -139 -38 -180 -95h177v-129h-221c-1 -10 -1 -15 -1 -21c0 -12 1 -18 2 -26h220v-128h-162c41 -47 100 -75 165 -75c55 0 104 25 140 68l124 -91
c-66 -78 -158 -126 -264 -126c-155 0 -287 91 -348 224h-94v128h59c-1 14 -1 15 -1 27c0 6 0 9 1 20h-59z" />
    <glyph glyph-name="guilsinglleft" unicode="&#x2039;" horiz-adv-x="415" 
d="M12 372l311 266l63 -92l-209 -174l209 -174l-63 -92z" />
    <glyph glyph-name="guilsinglright" unicode="&#x203a;" horiz-adv-x="415" 
d="M92 638l311 -266l-311 -266l-63 92l210 174l-210 174z" />
    <glyph glyph-name="daggerdbl" unicode="&#x2021;" horiz-adv-x="510" 
d="M189 370v77h-142v113h142v185h131v-185h143v-113h-143v-77h143v-114h-143v-256h-131v256h-142v114h142z" />
    <glyph glyph-name="periodcentered" unicode="&#xb7;" horiz-adv-x="201" 
d="M100 412c39 0 65 -28 65 -65c0 -33 -26 -63 -65 -63c-38 0 -64 30 -64 63c0 37 26 65 64 65z" />
    <glyph glyph-name="quotesinglbase" unicode="&#x201a;" horiz-adv-x="282" 
d="M104 -163h-89l68 227h159z" />
    <glyph glyph-name="quotedblbase" unicode="&#x201e;" horiz-adv-x="469" 
d="M104 -163h-89l67 227h160zM291 -163h-89l68 227h159z" />
    <glyph glyph-name="perthousand" unicode="&#x2030;" horiz-adv-x="1307" 
d="M340 0h-125l335 745h119zM697 35c-90 0 -166 76 -166 166c0 95 76 171 166 171c96 0 171 -76 171 -171c0 -90 -75 -166 -171 -166zM697 266c-31 0 -57 -26 -57 -65c0 -33 26 -61 57 -61c36 0 60 28 60 61c0 39 -25 65 -60 65zM195 372c-90 0 -166 76 -166 166
c0 95 76 171 166 171c96 0 171 -76 171 -171c0 -90 -75 -166 -171 -166zM195 603c-31 0 -57 -26 -57 -65c0 -33 26 -61 57 -61c37 0 60 28 60 61c0 39 -25 65 -60 65zM1107 35c-90 0 -166 76 -166 166c0 95 76 171 166 171c96 0 170 -76 170 -171c0 -90 -74 -166 -170 -166z
M1107 266c-32 0 -58 -26 -58 -65c0 -33 26 -61 58 -61c36 0 59 28 59 61c0 39 -24 65 -59 65z" />
    <glyph glyph-name="Acircumflex" unicode="&#xc2;" horiz-adv-x="775" 
d="M385 1014l165 -206h-134l-31 43l-32 -43h-133zM612 0l-49 100h-361l-48 -100h-160l393 758l394 -758h-169zM381 472l-112 -232h226z" />
    <glyph glyph-name="Ecircumflex" unicode="&#xca;" horiz-adv-x="573" 
d="M263 1014l165 -206h-133l-32 43l-31 -43h-134zM533 0h-462v745h396v-140h-241v-139h280v-139h-280v-187h307v-140z" />
    <glyph glyph-name="Aacute" unicode="&#xc1;" horiz-adv-x="775" 
d="M466 994l93 -67l-78 -119h-134zM612 0l-49 100h-361l-48 -100h-160l393 758l394 -758h-169zM381 472l-112 -232h226z" />
    <glyph glyph-name="Edieresis" unicode="&#xcb;" horiz-adv-x="573" 
d="M214 869c0 -38 -27 -64 -63 -64c-34 0 -62 25 -62 64c0 37 28 62 62 62c36 0 63 -25 63 -62zM475 869c0 -38 -28 -64 -64 -64c-33 0 -61 25 -61 64c0 37 28 62 61 62c36 0 64 -25 64 -62zM533 0h-462v745h396v-140h-241v-139h280v-139h-280v-187h307v-140z" />
    <glyph glyph-name="Egrave" unicode="&#xc8;" horiz-adv-x="573" 
d="M145 927l94 67l118 -186h-134zM533 0h-462v745h396v-140h-241v-139h280v-139h-280v-187h307v-140z" />
    <glyph glyph-name="Iacute" unicode="&#xcd;" horiz-adv-x="297" 
d="M210 994l94 -67l-78 -119h-134zM226 745v-745h-155v745h155z" />
    <glyph glyph-name="Icircumflex" unicode="&#xce;" horiz-adv-x="297" 
d="M226 745v-745h-155v745h155zM147 1014l165 -206h-133l-32 43l-31 -43h-134z" />
    <glyph glyph-name="Idieresis" unicode="&#xcf;" horiz-adv-x="297" 
d="M75 869c0 -38 -27 -64 -63 -64c-34 0 -62 25 -62 64c0 37 28 62 62 62c36 0 63 -25 63 -62zM336 869c0 -38 -28 -64 -65 -64c-32 0 -61 25 -61 64c0 37 29 62 61 62c37 0 65 -25 65 -62zM226 745v-745h-155v745h155z" />
    <glyph glyph-name="Igrave" unicode="&#xcc;" horiz-adv-x="297" 
d="M-7 927l93 67l119 -186h-134zM226 745v-745h-155v745h155z" />
    <glyph glyph-name="Oacute" unicode="&#xd3;" horiz-adv-x="851" 
d="M426 -13c-214 0 -386 173 -386 386s172 385 385 385c214 0 386 -172 386 -385s-172 -386 -385 -386zM425 610c-127 0 -226 -106 -226 -237c0 -133 99 -237 227 -237c126 0 226 104 226 237c0 131 -101 237 -227 237zM446 994l93 -67l-78 -119h-134z" />
    <glyph glyph-name="Ocircumflex" unicode="&#xd4;" horiz-adv-x="851" 
d="M426 -13c-214 0 -386 173 -386 386s172 385 385 385c214 0 386 -172 386 -385s-172 -386 -385 -386zM425 610c-127 0 -226 -106 -226 -237c0 -133 99 -237 227 -237c126 0 226 104 226 237c0 131 -101 237 -227 237zM425 1014l165 -206h-134l-31 43l-32 -43h-133z" />
    <glyph glyph-name="Ograve" unicode="&#xd2;" horiz-adv-x="851" 
d="M426 -13c-214 0 -386 173 -386 386s172 385 385 385c214 0 386 -172 386 -385s-172 -386 -385 -386zM425 610c-127 0 -226 -106 -226 -237c0 -133 99 -237 227 -237c126 0 226 104 226 237c0 131 -101 237 -227 237zM257 927l94 67l118 -186h-133z" />
    <glyph glyph-name="Uacute" unicode="&#xda;" horiz-adv-x="769" 
d="M386 -13c-218 0 -322 151 -322 358v400h155v-426c0 -117 57 -183 167 -183c116 0 166 71 166 183v426h153v-413c0 -217 -121 -345 -319 -345zM429 994l94 -67l-79 -119h-133z" />
    <glyph glyph-name="Ucircumflex" unicode="&#xdb;" horiz-adv-x="769" 
d="M386 -13c-218 0 -322 151 -322 358v400h155v-426c0 -117 57 -183 167 -183c116 0 166 71 166 183v426h153v-413c0 -217 -121 -345 -319 -345zM388 1014l165 -206h-133l-32 43l-31 -43h-134z" />
    <glyph glyph-name="Ugrave" unicode="&#xd9;" horiz-adv-x="769" 
d="M386 -13c-218 0 -322 151 -322 358v400h155v-426c0 -117 57 -183 167 -183c116 0 166 71 166 183v426h153v-413c0 -217 -121 -345 -319 -345zM250 927l94 67l118 -186h-133z" />
    <glyph glyph-name="dotlessi" unicode="&#x131;" horiz-adv-x="242" 
d="M192 505v-505h-142v505h142z" />
    <glyph glyph-name="circumflex" unicode="&#x2c6;" horiz-adv-x="903" 
d="M451 1014l165 -206h-133l-32 43l-31 -43h-134z" />
    <glyph glyph-name="tilde" unicode="&#x2dc;" horiz-adv-x="837" 
d="M289 813l-100 74c47 57 95 79 160 79c54 0 92 -36 136 -36c20 0 41 14 60 36l100 -72c-34 -45 -82 -86 -143 -86c-55 0 -86 41 -132 41c-32 0 -50 -10 -81 -36z" />
    <glyph glyph-name="macron" unicode="&#xaf;" horiz-adv-x="837" 
d="M210 820v134h413v-134h-413z" />
    <glyph glyph-name="breve" unicode="&#x2d8;" horiz-adv-x="787" 
d="M457 977h102c0 -96 -78 -176 -178 -176c-96 0 -175 80 -175 176h103c0 -41 34 -78 75 -78s73 37 73 78z" />
    <glyph glyph-name="dotaccent" unicode="&#x2d9;" horiz-adv-x="750" 
d="M375 866c48 0 88 -39 88 -90c0 -49 -40 -90 -88 -90s-89 41 -89 90c0 51 41 90 89 90z" />
    <glyph glyph-name="ring" unicode="&#x2da;" horiz-adv-x="857" 
d="M415 803c-59 0 -109 49 -109 108c0 64 50 113 109 113c63 0 113 -49 113 -113c0 -59 -50 -108 -113 -108zM415 943c-15 0 -28 -13 -28 -32c0 -15 13 -29 28 -29c18 0 28 14 28 29c0 19 -10 32 -28 32z" />
    <glyph glyph-name="cedilla" unicode="&#xb8;" horiz-adv-x="963" 
d="M338 -9h139l-20 -26h148v-121h-364z" />
    <glyph glyph-name="hungarumlaut" unicode="&#x2dd;" horiz-adv-x="450" 
d="M112 811h-89l49 164h160zM299 811h-89l73 164h159z" />
    <glyph glyph-name="ogonek" unicode="&#x2db;" horiz-adv-x="756" 
d="M267 0h105c0 -43 28 -73 68 -73c23 0 43 13 55 33l83 -59c-32 -45 -82 -74 -138 -74c-99 0 -173 76 -173 173z" />
    <glyph glyph-name="caron" unicode="&#x2c7;" horiz-adv-x="903" 
d="M616 991l-165 -206l-165 206h134l31 -43l32 43h133z" />
    <glyph glyph-name="currency" unicode="&#xa4;" horiz-adv-x="642" 
d="M321 92c-43 0 -82 10 -117 28l-54 -54l-105 103l55 55c-18 35 -28 74 -28 116s10 82 29 117l-56 56l105 105l56 -57c34 17 73 27 114 27s80 -10 115 -28l58 58l104 -105l-57 -57c18 -35 28 -74 28 -116c0 -41 -10 -80 -28 -114l57 -57l-104 -103l-56 55
c-34 -18 -74 -29 -116 -29zM320 466c-65 0 -121 -57 -121 -126s56 -125 122 -125s118 56 118 125s-54 126 -119 126z" />
    <glyph glyph-name="brokenbar" unicode="&#xa6;" horiz-adv-x="250" 
d="M178 229v-407h-102v407h102zM178 724v-407h-102v407h102z" />
    <glyph glyph-name="twosuperior" unicode="&#xb2;" horiz-adv-x="278" 
d="M275 340h-273l111 179c-55 11 -93 57 -93 112c0 62 51 121 118 121c66 0 120 -54 120 -121c0 -24 -8 -45 -20 -65l-83 -138h120v-88zM107 629c0 -18 15 -33 33 -33s33 15 33 33s-15 33 -33 33s-33 -15 -33 -33z" />
    <glyph glyph-name="threesuperior" unicode="&#xb3;" horiz-adv-x="291" 
d="M35 745h234l-74 -141c48 -24 77 -69 77 -123c0 -84 -63 -146 -142 -146c-47 0 -93 27 -122 67l77 55c11 -19 28 -29 45 -29c23 0 45 20 45 48c0 29 -22 47 -45 47h-73l70 136h-92v86z" />
    <glyph glyph-name="onesuperior" unicode="&#xb9;" horiz-adv-x="168" 
d="M150 745v-405h-94v319h-48v86h142z" />
    <glyph glyph-name="Eth" unicode="&#xd0;" horiz-adv-x="803" 
d="M36 292v141h35v312h302c215 0 390 -160 390 -372c0 -214 -175 -373 -389 -373h-303v292h-35zM226 140h148c129 0 230 99 230 233c0 135 -101 232 -231 232h-147v-172h155v-141h-155v-152z" />
    <glyph glyph-name="multiply" unicode="&#xd7;" horiz-adv-x="507" 
d="M123 143l-80 79l131 131l-131 131l80 80l131 -131l131 131l79 -80l-131 -131l131 -131l-79 -79l-131 131z" />
    <glyph glyph-name="Yacute" unicode="&#xdd;" horiz-adv-x="764" 
d="M468 994l93 -67l-78 -119h-133zM389 379l218 366h163l-306 -505v-240h-154v226l-316 519h178z" />
    <glyph glyph-name="Thorn" unicode="&#xde;" horiz-adv-x="671" 
d="M230 0h-159v745h159v-71h100c182 0 312 -144 312 -289c0 -184 -136 -319 -323 -319h-89v-66zM230 206h86c107 0 167 74 167 164c0 80 -57 164 -158 164h-95v-328z" />
    <glyph glyph-name="eth" unicode="&#xf0;" horiz-adv-x="603" 
d="M374 541l-83 21l13 46c-13 2 -26 3 -40 3v117c24 0 47 -3 70 -7l16 55l83 -23l-18 -63c38 -21 70 -50 95 -91c37 -63 47 -159 47 -257v-90c0 -144 -121 -263 -266 -263s-262 119 -262 263c0 146 117 264 262 264c58 0 110 -19 155 -50v4c0 46 -24 85 -61 109zM291 130
c69 0 121 50 121 122c0 71 -52 122 -121 122c-65 0 -118 -51 -118 -122c0 -72 53 -122 118 -122z" />
    <glyph glyph-name="yacute" unicode="&#xfd;" horiz-adv-x="574" 
d="M336 760l93 -67l-78 -119h-134zM221 48l-227 457h156l146 -313l143 313h141l-347 -746h-147z" />
    <glyph glyph-name="thorn" unicode="&#xfe;" 
d="M192 -241h-142v986h142v-275c27 27 79 46 123 46c145 0 248 -118 248 -262c0 -146 -110 -265 -248 -265c-40 0 -94 14 -123 47v-277zM301 374c-66 0 -115 -50 -115 -121c0 -72 49 -123 115 -123c65 0 118 51 118 123c0 71 -53 121 -118 121z" />
    <glyph glyph-name="Amacron" unicode="&#x100;" horiz-adv-x="775" 
d="M178 820v134h413v-134h-413zM612 0l-49 100h-361l-48 -100h-160l393 758l394 -758h-169zM381 472l-112 -232h226z" />
    <glyph glyph-name="amacron" unicode="&#x101;" 
d="M93 574v134h413v-134h-413zM400 505h142v-505h-142v36c-22 -29 -77 -47 -123 -47c-138 0 -248 119 -248 263c0 146 113 264 248 264c45 0 101 -22 123 -46v35zM291 130c66 0 115 50 115 122c0 71 -49 122 -115 122c-65 0 -118 -51 -118 -122c0 -72 53 -122 118 -122z" />
    <glyph glyph-name="Abreve" unicode="&#x102;" horiz-adv-x="775" 
d="M457 977h102c0 -96 -78 -176 -178 -176c-96 0 -175 80 -175 176h103c0 -41 34 -78 75 -78s73 37 73 78zM612 0l-49 100h-361l-48 -100h-160l393 758l394 -758h-169zM381 472l-112 -232h226z" />
    <glyph glyph-name="abreve" unicode="&#x103;" 
d="M387 743h102c0 -96 -78 -176 -178 -176c-96 0 -175 80 -175 176h103c0 -41 33 -78 74 -78s74 37 74 78zM400 505h142v-505h-142v36c-22 -29 -77 -47 -123 -47c-138 0 -248 119 -248 263c0 146 113 264 248 264c45 0 101 -22 123 -46v35zM291 130c66 0 115 50 115 122
c0 71 -49 122 -115 122c-65 0 -118 -51 -118 -122c0 -72 53 -122 118 -122z" />
    <glyph glyph-name="Aogonek" unicode="&#x104;" horiz-adv-x="773" 
d="M612 0l-49 100h-361l-48 -100h-160l393 758l394 -758h-64c0 -43 28 -73 68 -73c23 0 43 13 55 33l83 -59c-32 -45 -82 -74 -138 -74c-98 0 -173 76 -173 173zM381 472l-112 -232h226z" />
    <glyph glyph-name="aogonek" unicode="&#x105;" 
d="M400 0v36c-22 -29 -77 -47 -123 -47c-136 0 -248 119 -248 263c0 146 113 264 249 264c44 0 100 -22 122 -46v35h142v-505h-37c0 -43 28 -73 68 -73c24 0 43 13 55 33l83 -59c-31 -45 -82 -74 -138 -74c-98 0 -173 76 -173 173zM291 130c66 0 115 50 115 122
c0 71 -49 122 -115 122c-65 0 -118 -51 -118 -122c0 -72 53 -122 118 -122z" />
    <glyph glyph-name="Cacute" unicode="&#x106;" horiz-adv-x="847" 
d="M481 994l93 -67l-78 -119h-133zM650 329h157c-22 -191 -186 -342 -384 -342c-213 0 -383 172 -383 385s170 386 382 386c139 0 262 -72 329 -181l-121 -86c-54 80 -130 119 -207 119c-125 0 -224 -106 -224 -238c0 -131 99 -236 224 -236c112 0 206 81 227 193z" />
    <glyph glyph-name="cacute" unicode="&#x107;" horiz-adv-x="585" 
d="M324 760l94 -67l-79 -119h-133zM411 232h146c-10 -135 -127 -243 -266 -243c-145 0 -262 119 -262 263c0 146 117 264 262 264c83 0 158 -39 207 -99l-113 -88c-26 33 -59 45 -94 45c-65 0 -118 -51 -118 -122c0 -72 53 -122 118 -122c62 0 111 41 120 102z" />
    <glyph glyph-name="Cdotaccent" unicode="&#x10a;" horiz-adv-x="847" 
d="M419 983c48 0 88 -39 88 -90c0 -49 -40 -90 -88 -90s-89 41 -89 90c0 51 41 90 89 90zM650 329h157c-22 -191 -186 -342 -384 -342c-213 0 -383 172 -383 385s170 386 382 386c139 0 262 -72 329 -181l-121 -86c-54 80 -130 119 -207 119c-125 0 -224 -106 -224 -238
c0 -131 99 -236 224 -236c112 0 206 81 227 193z" />
    <glyph glyph-name="cdotaccent" unicode="&#x10b;" horiz-adv-x="585" 
d="M290 749c48 0 88 -39 88 -90c0 -49 -40 -90 -88 -90s-89 41 -89 90c0 51 41 90 89 90zM411 232h146c-10 -135 -127 -243 -266 -243c-145 0 -262 119 -262 263c0 146 117 264 262 264c83 0 158 -39 207 -99l-113 -88c-26 33 -59 45 -94 45c-65 0 -118 -51 -118 -122
c0 -72 53 -122 118 -122c62 0 111 41 120 102z" />
    <glyph glyph-name="Ccaron" unicode="&#x10c;" horiz-adv-x="847" 
d="M586 991l-165 -206l-165 206h133l32 -43l32 43h133zM650 329h157c-22 -191 -186 -342 -384 -342c-213 0 -383 172 -383 385s170 386 382 386c139 0 262 -72 329 -181l-121 -86c-54 80 -130 119 -207 119c-125 0 -224 -106 -224 -238c0 -131 99 -236 224 -236
c112 0 206 81 227 193z" />
    <glyph glyph-name="ccaron" unicode="&#x10d;" horiz-adv-x="585" 
d="M453 757l-165 -206l-165 206h133l32 -43l31 43h134zM411 232h146c-10 -135 -127 -243 -266 -243c-145 0 -262 119 -262 263c0 146 117 264 262 264c83 0 158 -39 207 -99l-113 -88c-26 33 -59 45 -94 45c-65 0 -118 -51 -118 -122c0 -72 53 -122 118 -122
c62 0 111 41 120 102z" />
    <glyph glyph-name="Dcaron" unicode="&#x10e;" horiz-adv-x="803" 
d="M71 745h302c215 0 390 -160 390 -372c0 -214 -175 -373 -389 -373h-303v745zM226 140h148c129 0 230 99 230 233c0 135 -101 232 -231 232h-147v-465zM499 991l-165 -206l-165 206h134l31 -43l32 43h133z" />
    <glyph glyph-name="dcaron" unicode="&#x10f;" 
d="M382 757l-165 -206l-165 206h134l31 -43l32 43h133zM400 745h142v-745h-142v36c-22 -29 -77 -47 -123 -47c-138 0 -248 119 -248 263c0 146 113 264 248 264c45 0 101 -22 123 -46v275zM291 130c66 0 115 50 115 122c0 71 -49 122 -115 122c-65 0 -118 -51 -118 -122
c0 -72 53 -122 118 -122z" />
    <glyph glyph-name="Dcroat" unicode="&#x110;" horiz-adv-x="803" 
d="M36 292v141h35v312h302c215 0 390 -160 390 -372c0 -214 -175 -373 -389 -373h-303v292h-35zM226 140h148c129 0 230 99 230 233c0 135 -101 232 -231 232h-147v-172h155v-141h-155v-152z" />
    <glyph glyph-name="dcroat" unicode="&#x111;" 
d="M400 745h142v-61h56v-132h-56v-552h-142v36c-22 -29 -77 -47 -123 -47c-138 0 -248 119 -248 263c0 146 113 264 248 264c45 0 101 -22 123 -46v82h-114v132h114v61zM291 130c66 0 115 50 115 122c0 71 -49 122 -115 122c-65 0 -118 -51 -118 -122
c0 -72 53 -122 118 -122z" />
    <glyph glyph-name="Emacron" unicode="&#x112;" horiz-adv-x="573" 
d="M60 820v134h413v-134h-413zM533 0h-462v745h396v-140h-241v-139h280v-139h-280v-187h307v-140z" />
    <glyph glyph-name="emacron" unicode="&#x113;" horiz-adv-x="572" 
d="M412 181l113 -87c-43 -64 -132 -105 -222 -105c-152 0 -274 119 -274 263c0 146 117 264 262 264c125 0 221 -84 252 -178l-282 -202c13 -5 27 -6 42 -6c43 0 86 15 109 51zM58 574v134h413v-134h-413zM173 252c0 -12 1 -23 4 -33l184 131c-20 15 -43 24 -70 24
c-65 0 -118 -51 -118 -122z" />
    <glyph glyph-name="Edotaccent" unicode="&#x116;" horiz-adv-x="573" 
d="M269 983c48 0 88 -39 88 -90c0 -49 -40 -90 -88 -90s-89 41 -89 90c0 51 41 90 89 90zM533 0h-462v745h396v-140h-241v-139h280v-139h-280v-187h307v-140z" />
    <glyph glyph-name="edotaccent" unicode="&#x117;" horiz-adv-x="572" 
d="M412 181l113 -87c-43 -64 -132 -105 -222 -105c-152 0 -274 119 -274 263c0 146 117 264 262 264c125 0 221 -84 252 -178l-282 -202c13 -5 27 -6 42 -6c43 0 86 15 109 51zM270 749c48 0 88 -39 88 -90c0 -49 -40 -90 -88 -90s-89 41 -89 90c0 51 41 90 89 90zM173 252
c0 -12 1 -23 4 -33l184 131c-20 15 -43 24 -70 24c-65 0 -118 -51 -118 -122z" />
    <glyph glyph-name="Eogonek" unicode="&#x118;" horiz-adv-x="573" 
d="M237 0h-166v745h396v-140h-241v-139h280v-139h-280v-187h307v-140h-191c0 -43 28 -73 68 -73c23 0 43 13 55 33l83 -59c-32 -45 -82 -74 -138 -74c-99 0 -173 76 -173 173z" />
    <glyph glyph-name="eogonek" unicode="&#x119;" horiz-adv-x="572" 
d="M412 181l113 -87c-38 -57 -113 -94 -192 -102c4 -39 31 -65 68 -65c24 0 43 13 55 33l83 -59c-31 -45 -82 -74 -138 -74c-98 0 -173 76 -173 173c-116 30 -199 132 -199 252c0 146 117 264 262 264c125 0 221 -84 252 -178l-282 -202c13 -5 27 -6 42 -6
c43 0 86 15 109 51zM173 252c0 -12 1 -23 4 -33l184 131c-20 15 -43 24 -70 24c-65 0 -118 -51 -118 -122z" />
    <glyph glyph-name="Ecaron" unicode="&#x11a;" horiz-adv-x="573" 
d="M441 991l-165 -206l-165 206h133l32 -43l32 43h133zM533 0h-462v745h396v-140h-241v-139h280v-139h-280v-187h307v-140z" />
    <glyph glyph-name="ecaron" unicode="&#x11b;" horiz-adv-x="572" 
d="M412 181l113 -87c-43 -64 -132 -105 -222 -105c-152 0 -274 119 -274 263c0 146 117 264 262 264c125 0 221 -84 252 -178l-282 -202c13 -5 27 -6 42 -6c43 0 86 15 109 51zM173 252c0 -12 1 -23 4 -33l184 131c-20 15 -43 24 -70 24c-65 0 -118 -51 -118 -122zM450 757
l-165 -206l-165 206h134l31 -43l32 43h133z" />
    <glyph glyph-name="Gdotaccent" unicode="&#x120;" horiz-adv-x="847" 
d="M423 983c48 0 88 -39 88 -90c0 -49 -40 -90 -88 -90s-89 41 -89 90c0 51 41 90 89 90zM809 407v-23c0 -220 -172 -397 -386 -397c-213 0 -383 172 -383 385s170 386 382 386c139 0 262 -72 329 -181l-124 -90c-39 73 -116 123 -204 123c-125 0 -224 -106 -224 -238
c0 -131 99 -236 224 -236c90 0 173 46 206 133h-202v138h382z" />
    <glyph glyph-name="gdotaccent" unicode="&#x121;" 
d="M284 -111c65 0 116 47 116 107v40c-22 -29 -77 -47 -123 -47c-138 0 -248 119 -248 263c0 146 113 264 248 264c45 0 101 -22 123 -46v35h142v-500c0 -141 -115 -257 -258 -257c-90 0 -168 46 -215 115l115 83c21 -35 58 -57 100 -57zM291 130c66 0 115 50 115 122
c0 71 -49 122 -115 122c-65 0 -118 -51 -118 -122c0 -72 53 -122 118 -122zM282 749c48 0 88 -39 88 -90c0 -49 -40 -90 -88 -90s-89 41 -89 90c0 51 41 90 89 90z" />
    <glyph glyph-name="uni0122" unicode="&#x122;" horiz-adv-x="847" 
d="M390 -253h-81l53 181h138zM809 407v-23c0 -220 -172 -397 -386 -397c-213 0 -383 172 -383 385s170 386 382 386c139 0 262 -72 329 -181l-124 -90c-39 73 -116 123 -204 123c-125 0 -224 -106 -224 -238c0 -131 99 -236 224 -236c90 0 173 46 206 133h-202v138h382z" />
    <glyph glyph-name="uni0123" unicode="&#x123;" 
d="M284 -111c65 0 116 47 116 107v40c-22 -29 -77 -47 -123 -47c-138 0 -248 119 -248 263c0 146 113 264 248 264c45 0 101 -22 123 -46v35h142v-500c0 -141 -115 -257 -258 -257c-90 0 -168 46 -215 115l115 83c21 -35 58 -57 100 -57zM291 130c66 0 115 50 115 122
c0 71 -49 122 -115 122c-65 0 -118 -51 -118 -122c0 -72 53 -122 118 -122zM309 758h81l-53 -181h-138z" />
    <glyph glyph-name="Itilde" unicode="&#x128;" horiz-adv-x="297" 
d="M226 745v-745h-155v745h155zM29 813l-100 74c47 57 95 79 160 79c54 0 92 -36 136 -36c20 0 41 14 60 36l100 -72c-34 -45 -82 -86 -143 -86c-55 0 -86 41 -132 41c-32 0 -50 -10 -81 -36z" />
    <glyph glyph-name="itilde" unicode="&#x129;" horiz-adv-x="242" 
d="M192 505v-505h-142v505h142zM20 579l-99 74c46 57 94 79 159 79c55 0 92 -36 137 -36c20 0 41 14 59 36l100 -72c-34 -45 -82 -86 -143 -86c-55 0 -85 41 -132 41c-32 0 -49 -10 -81 -36z" />
    <glyph glyph-name="Imacron" unicode="&#x12a;" horiz-adv-x="297" 
d="M226 745v-745h-155v745h155zM-55 820v134h413v-134h-413z" />
    <glyph glyph-name="imacron" unicode="&#x12b;" horiz-adv-x="245" 
d="M193 505v-505h-142v505h142zM-83 574v134h413v-134h-413z" />
    <glyph glyph-name="Iogonek" unicode="&#x12e;" horiz-adv-x="297" 
d="M71 0v745h155v-745h-49c0 -43 28 -73 67 -73c24 0 44 13 55 33l83 -59c-31 -45 -81 -74 -138 -74c-98 0 -173 76 -173 173z" />
    <glyph glyph-name="iogonek" unicode="&#x12f;" horiz-adv-x="242" 
d="M50 0v505h142v-505h-37c0 -43 29 -73 68 -73c24 0 44 13 55 33l83 -59c-31 -45 -82 -74 -138 -74c-98 0 -173 76 -173 173zM120 594c-44 0 -82 37 -82 81c0 40 38 78 82 78c48 0 85 -37 85 -78c0 -44 -37 -81 -85 -81z" />
    <glyph glyph-name="uni0136" unicode="&#x136;" horiz-adv-x="791" 
d="M226 745v-352l352 352h207l-366 -366l378 -379h-209l-279 280l-83 -83v-197h-155v745h155zM320 -253h-81l53 181h138z" />
    <glyph glyph-name="uni0137" unicode="&#x137;" horiz-adv-x="588" 
d="M232 178l-40 -38v-140h-142v745h142v-441l215 201h176l-254 -236l265 -269h-181zM220 -253h-81l53 181h138z" />
    <glyph glyph-name="Lacute" unicode="&#x139;" horiz-adv-x="541" 
d="M71 745h155v-605h300v-140h-455v745zM202 994l94 -67l-79 -119h-133z" />
    <glyph glyph-name="lacute" unicode="&#x13a;" horiz-adv-x="284" 
d="M189 994l94 -67l-78 -119h-134zM226 745v-745h-155v745h155z" />
    <glyph glyph-name="uni013B" unicode="&#x13b;" horiz-adv-x="541" 
d="M71 745h155v-605h300v-140h-455v745zM194 -253h-81l53 181h138z" />
    <glyph glyph-name="uni013C" unicode="&#x13c;" horiz-adv-x="242" 
d="M50 745h142v-745h-142v745zM78 -253h-81l53 181h138z" />
    <glyph glyph-name="Lcaron" unicode="&#x13d;" horiz-adv-x="541" 
d="M71 745h155v-605h300v-140h-455v745zM317 991l-165 -206l-165 206h133l32 -43l32 43h133z" />
    <glyph glyph-name="lcaron" unicode="&#x13e;" horiz-adv-x="284" 
d="M317 991l-165 -206l-165 206h133l32 -43l31 43h134zM226 745v-745h-155v745h155z" />
    <glyph glyph-name="Lslash" unicode="&#x141;" horiz-adv-x="558" 
d="M81 745h154v-290l109 62v-138l-109 -62v-177h301v-140h-455v229l-76 -43v138l76 43v378z" />
    <glyph glyph-name="lslash" unicode="&#x142;" horiz-adv-x="324" 
d="M229 745v-293l115 65v-138l-115 -65v-314h-154v226l-70 -40v138l70 40v381h154z" />
    <glyph glyph-name="Nacute" unicode="&#x143;" horiz-adv-x="827" 
d="M601 314v431h155v-758l-530 441v-428h-155v759zM464 994l94 -67l-78 -119h-134z" />
    <glyph glyph-name="nacute" unicode="&#x144;" horiz-adv-x="602" 
d="M324 760l94 -67l-79 -119h-133zM559 252v-252h-141v252c0 81 -47 122 -105 122c-63 0 -121 -41 -121 -122v-252h-142v505h142v-35c28 32 87 46 133 46c138 0 234 -118 234 -264z" />
    <glyph glyph-name="uni0145" unicode="&#x145;" horiz-adv-x="827" 
d="M601 314v431h155v-758l-530 441v-428h-155v759zM330 -253h-81l53 181h138z" />
    <glyph glyph-name="uni0146" unicode="&#x146;" horiz-adv-x="602" 
d="M559 252v-252h-141v252c0 81 -47 122 -105 122c-63 0 -121 -41 -121 -122v-252h-142v505h142v-35c28 32 87 46 133 46c138 0 234 -118 234 -264zM250 -253h-81l53 181h138z" />
    <glyph glyph-name="Ncaron" unicode="&#x147;" horiz-adv-x="827" 
d="M601 314v431h155v-758l-530 441v-428h-155v759zM570 991l-165 -206l-165 206h133l32 -43l31 43h134z" />
    <glyph glyph-name="ncaron" unicode="&#x148;" horiz-adv-x="602" 
d="M453 757l-165 -206l-165 206h133l32 -43l31 43h134zM559 252v-252h-141v252c0 81 -47 122 -105 122c-63 0 -121 -41 -121 -122v-252h-142v505h142v-35c28 32 87 46 133 46c138 0 234 -118 234 -264z" />
    <glyph glyph-name="Omacron" unicode="&#x14c;" horiz-adv-x="851" 
d="M426 -13c-214 0 -386 173 -386 386s172 385 385 385c214 0 386 -172 386 -385s-172 -386 -385 -386zM425 610c-127 0 -226 -106 -226 -237c0 -133 99 -237 227 -237c126 0 226 104 226 237c0 131 -101 237 -227 237zM215 820v134h413v-134h-413z" />
    <glyph glyph-name="omacron" unicode="&#x14d;" horiz-adv-x="586" 
d="M291 516c145 0 266 -118 266 -264c0 -144 -121 -263 -266 -263s-262 119 -262 263c0 146 117 264 262 264zM291 130c69 0 121 50 121 122c0 71 -52 122 -121 122c-65 0 -118 -51 -118 -122c0 -72 53 -122 118 -122zM84 574v134h413v-134h-413z" />
    <glyph glyph-name="Ohungarumlaut" unicode="&#x150;" horiz-adv-x="851" 
d="M426 -13c-214 0 -386 173 -386 386s172 385 385 385c214 0 386 -172 386 -385s-172 -386 -385 -386zM425 610c-127 0 -226 -106 -226 -237c0 -133 99 -237 227 -237c126 0 226 104 226 237c0 131 -101 237 -227 237zM363 811h-89l49 164h159zM550 811h-89l72 164h159z
" />
    <glyph glyph-name="ohungarumlaut" unicode="&#x151;" horiz-adv-x="586" 
d="M291 516c145 0 266 -118 266 -264c0 -144 -121 -263 -266 -263s-262 119 -262 263c0 146 117 264 262 264zM291 130c69 0 121 50 121 122c0 71 -52 122 -121 122c-65 0 -118 -51 -118 -122c0 -72 53 -122 118 -122zM227 577h-89l49 164h159zM414 577h-89l73 164h159z" />
    <glyph glyph-name="Racute" unicode="&#x154;" horiz-adv-x="675" 
d="M304 129h-78v-129h-155v745h259c175 0 309 -131 309 -293c0 -134 -64 -232 -168 -280l161 -172h-206zM226 269h64c123 0 190 60 190 171c0 91 -54 165 -160 165h-94v-336zM347 994l94 -67l-78 -119h-134z" />
    <glyph glyph-name="racute" unicode="&#x155;" horiz-adv-x="352" 
d="M230 760l94 -67l-78 -119h-134zM339 514v-147c-14 5 -29 7 -45 7c-55 0 -102 -41 -102 -122v-252h-142v505h142v-35c31 33 73 46 112 46c12 0 22 0 35 -2z" />
    <glyph glyph-name="uni0156" unicode="&#x156;" horiz-adv-x="675" 
d="M304 129h-78v-129h-155v745h259c175 0 309 -131 309 -293c0 -134 -64 -232 -168 -280l161 -172h-206zM226 269h64c123 0 190 60 190 171c0 91 -54 165 -160 165h-94v-336zM270 -253h-81l53 181h138z" />
    <glyph glyph-name="uni0157" unicode="&#x157;" horiz-adv-x="352" 
d="M78 -253h-81l53 181h138zM339 514v-147c-14 5 -29 7 -45 7c-55 0 -102 -41 -102 -122v-252h-142v505h142v-35c31 33 73 46 112 46c12 0 22 0 35 -2z" />
    <glyph glyph-name="Rcaron" unicode="&#x158;" horiz-adv-x="675" 
d="M304 129h-78v-129h-155v745h259c175 0 309 -131 309 -293c0 -134 -64 -232 -168 -280l161 -172h-206zM226 269h64c123 0 190 60 190 171c0 91 -54 165 -160 165h-94v-336zM469 991l-165 -206l-165 206h133l32 -43l32 43h133z" />
    <glyph glyph-name="rcaron" unicode="&#x159;" horiz-adv-x="352" 
d="M358 757l-165 -206l-165 206h133l32 -43l31 43h134zM339 514v-147c-14 5 -29 7 -45 7c-55 0 -102 -41 -102 -122v-252h-142v505h142v-35c31 33 73 46 112 46c12 0 22 0 35 -2z" />
    <glyph glyph-name="Sacute" unicode="&#x15a;" horiz-adv-x="556" 
d="M312 994l94 -67l-78 -119h-134zM250 330c-129 15 -213 96 -213 213c0 126 116 215 219 215c74 0 144 -28 201 -96l-122 -89c-20 21 -53 37 -79 37c-41 0 -69 -25 -69 -66c0 -34 25 -65 104 -70c127 -8 232 -94 232 -238c0 -145 -121 -249 -252 -249
c-85 0 -170 31 -241 109l128 94c34 -43 69 -54 113 -54c51 0 91 41 91 89c0 60 -40 97 -112 105z" />
    <glyph glyph-name="sacute" unicode="&#x15b;" horiz-adv-x="402" 
d="M220 760l93 -67l-78 -119h-133zM180 203c-92 13 -157 74 -157 160c0 88 91 153 166 153c65 0 115 -27 151 -79l-102 -74c-13 12 -27 21 -46 21s-30 -11 -30 -26c0 -17 12 -27 54 -32c93 -12 164 -60 164 -164c0 -103 -85 -173 -194 -173c-75 0 -130 26 -174 76l120 87
c15 -16 33 -22 55 -22c26 0 38 15 38 34c0 20 -13 34 -45 39z" />
    <glyph glyph-name="Scedilla" unicode="&#x15e;" horiz-adv-x="556" 
d="M89 -156l101 153c-57 14 -112 45 -160 99l128 94c34 -43 69 -54 113 -54c51 0 91 41 91 89c0 60 -40 97 -112 105c-129 15 -213 96 -213 213c0 126 116 215 219 215c74 0 144 -28 201 -96l-122 -89c-20 21 -53 37 -79 37c-41 0 -69 -25 -69 -66c0 -34 25 -65 104 -70
c127 -8 232 -94 232 -238c0 -124 -89 -218 -197 -242l-20 -29h147v-121h-364z" />
    <glyph glyph-name="scedilla" unicode="&#x15f;" horiz-adv-x="402" 
d="M180 203c-92 13 -157 74 -157 160c0 88 91 153 166 153c65 0 115 -27 151 -79l-102 -74c-13 12 -27 21 -46 21s-30 -11 -30 -26c0 -17 12 -27 54 -32c93 -12 164 -60 164 -164c0 -91 -67 -157 -157 -170l-10 -27h147v-121h-324l65 158c-34 13 -64 34 -89 63l120 87
c15 -16 33 -22 55 -22c26 0 38 15 38 34c0 20 -13 34 -45 39z" />
    <glyph glyph-name="Scaron" unicode="&#x160;" horiz-adv-x="556" 
d="M427 991l-165 -206l-165 206h133l32 -43l32 43h133zM250 330c-129 15 -213 96 -213 213c0 126 116 215 219 215c74 0 144 -28 201 -96l-122 -89c-20 21 -53 37 -79 37c-41 0 -69 -25 -69 -66c0 -34 25 -65 104 -70c127 -8 232 -94 232 -238c0 -145 -121 -249 -252 -249
c-85 0 -170 31 -241 109l128 94c34 -43 69 -54 113 -54c51 0 91 41 91 89c0 60 -40 97 -112 105z" />
    <glyph glyph-name="scaron" unicode="&#x161;" horiz-adv-x="402" 
d="M343 757l-165 -206l-165 206h133l32 -43l31 43h134zM180 203c-92 13 -157 74 -157 160c0 88 91 153 166 153c65 0 115 -27 151 -79l-102 -74c-13 12 -27 21 -46 21s-30 -11 -30 -26c0 -17 12 -27 54 -32c93 -12 164 -60 164 -164c0 -103 -85 -173 -194 -173
c-75 0 -130 26 -174 76l120 87c15 -16 33 -22 55 -22c26 0 38 15 38 34c0 20 -13 34 -45 39z" />
    <glyph glyph-name="Tcaron" unicode="&#x164;" horiz-adv-x="573" 
d="M358 0h-155v600h-184v145h535v-145h-196v-600zM446 991l-165 -206l-165 206h133l32 -43l31 43h134z" />
    <glyph glyph-name="tcaron" unicode="&#x165;" horiz-adv-x="358" 
d="M346 374h-120v-161c0 -60 52 -88 117 -88v-136c-151 0 -259 89 -259 220v165h-76v131h76v66l142 103v-169h120v-131zM329 897l-165 -206l-165 206h133l32 -43l31 43h134z" />
    <glyph glyph-name="Utilde" unicode="&#x168;" horiz-adv-x="769" 
d="M386 -13c-218 0 -322 151 -322 358v400h155v-426c0 -117 57 -183 167 -183c116 0 166 71 166 183v426h153v-413c0 -217 -121 -345 -319 -345zM279 813l-100 74c47 57 95 79 160 79c54 0 92 -36 136 -36c20 0 41 14 60 36c68 -51 82 -60 100 -72c-34 -45 -82 -86 -143 -86
c-55 0 -86 41 -132 41c-32 0 -50 -10 -81 -36z" />
    <glyph glyph-name="utilde" unicode="&#x169;" horiz-adv-x="602" 
d="M43 242v263h142v-251c0 -73 47 -124 104 -124c63 0 122 31 122 124v251h141v-505h-141v36c-29 -32 -93 -47 -141 -47c-133 0 -227 114 -227 253zM170 579l-99 74c46 57 94 79 159 79c55 0 92 -36 137 -36c20 0 41 14 59 36l100 -72c-34 -45 -82 -86 -143 -86
c-55 0 -85 41 -132 41c-32 0 -49 -10 -81 -36z" />
    <glyph glyph-name="Umacron" unicode="&#x16a;" horiz-adv-x="769" 
d="M386 -13c-218 0 -322 151 -322 358v400h155v-426c0 -117 57 -183 167 -183c116 0 166 71 166 183v426h153v-413c0 -217 -121 -345 -319 -345zM175 820v134h413v-134h-413z" />
    <glyph glyph-name="umacron" unicode="&#x16b;" horiz-adv-x="602" 
d="M82 574v134h413v-134h-413zM43 242v263h142v-251c0 -73 47 -124 104 -124c63 0 122 31 122 124v251h141v-505h-141v36c-29 -32 -93 -47 -141 -47c-133 0 -227 114 -227 253z" />
    <glyph glyph-name="Uring" unicode="&#x16e;" horiz-adv-x="769" 
d="M386 -13c-218 0 -322 151 -322 358v400h155v-426c0 -117 57 -183 167 -183c116 0 166 71 166 183v426h153v-413c0 -217 -121 -345 -319 -345zM382 803c-59 0 -108 49 -108 108c0 64 49 113 108 113c64 0 113 -49 113 -113c0 -59 -49 -108 -113 -108zM382 943
c-15 0 -28 -13 -28 -32c0 -15 13 -29 28 -29c18 0 29 14 29 29c0 19 -11 32 -29 32z" />
    <glyph glyph-name="uring" unicode="&#x16f;" horiz-adv-x="602" 
d="M290 569c-60 0 -109 49 -109 108c0 64 49 113 109 113c63 0 112 -49 112 -113c0 -59 -49 -108 -112 -108zM290 709c-15 0 -28 -13 -28 -32c0 -15 13 -29 28 -29c18 0 28 14 28 29c0 19 -10 32 -28 32zM43 242v263h142v-251c0 -73 47 -124 104 -124c63 0 122 31 122 124
v251h141v-505h-141v36c-29 -32 -93 -47 -141 -47c-133 0 -227 114 -227 253z" />
    <glyph glyph-name="Uhungarumlaut" unicode="&#x170;" horiz-adv-x="769" 
d="M323 811h-89l49 164h159zM510 811h-89l73 164h159zM386 -13c-218 0 -322 151 -322 358v400h155v-426c0 -117 57 -183 167 -183c116 0 166 71 166 183v426h153v-413c0 -217 -121 -345 -319 -345z" />
    <glyph glyph-name="uhungarumlaut" unicode="&#x171;" horiz-adv-x="602" 
d="M229 574h-89l49 164h160zM416 574h-89l73 164h159zM43 242v263h142v-251c0 -73 47 -124 104 -124c63 0 122 31 122 124v251h141v-505h-141v36c-29 -32 -93 -47 -141 -47c-133 0 -227 114 -227 253z" />
    <glyph glyph-name="Uogonek" unicode="&#x172;" horiz-adv-x="770" 
d="M705 332c0 -199 -101 -321 -269 -341c5 -38 31 -64 68 -64c24 0 43 13 55 33l83 -59c-31 -45 -82 -74 -138 -74c-96 0 -168 71 -173 164c-180 23 -267 165 -267 354v400h155v-426c0 -117 57 -183 167 -183c116 0 166 71 166 183v426h153v-413z" />
    <glyph glyph-name="uogonek" unicode="&#x173;" horiz-adv-x="602" 
d="M411 0v36c-29 -32 -93 -47 -141 -47c-133 0 -227 114 -227 253v263h142v-251c0 -73 47 -124 104 -124c63 0 122 31 122 124v251h141v-505h-36c0 -43 28 -73 68 -73c23 0 43 13 55 33l83 -59c-32 -45 -82 -74 -138 -74c-99 0 -173 76 -173 173z" />
    <glyph glyph-name="Wcircumflex" unicode="&#x174;" horiz-adv-x="1081" 
d="M714 308l212 437h161l-379 -758l-163 307l-153 -307l-398 758h178l226 -437l70 135l-158 302h178zM541 1014l165 -206h-133l-32 43l-31 -43h-134z" />
    <glyph glyph-name="wcircumflex" unicode="&#x175;" horiz-adv-x="741" 
d="M502 263l106 242h139l-251 -518l-114 238l-114 -238l-274 518h157l121 -243l46 98l-68 145h136zM379 780l165 -206h-133l-32 43l-31 -43h-134z" />
    <glyph glyph-name="Ycircumflex" unicode="&#x176;" horiz-adv-x="764" 
d="M389 379l218 366h163l-306 -505v-240h-154v226l-316 519h178zM391 1014l165 -206h-133l-32 43l-31 -43h-134z" />
    <glyph glyph-name="ycircumflex" unicode="&#x177;" horiz-adv-x="574" 
d="M221 48l-227 457h156l146 -313l143 313h141l-347 -746h-147zM297 780l165 -206h-133l-32 43l-31 -43h-134z" />
    <glyph glyph-name="Zacute" unicode="&#x179;" horiz-adv-x="682" 
d="M263 140h404v-140h-662l386 605h-348v140h611zM434 994l94 -67l-79 -119h-133z" />
    <glyph glyph-name="zacute" unicode="&#x17a;" horiz-adv-x="469" 
d="M451 0h-443l225 374h-195v131h416l-210 -370h207v-135zM324 760l94 -67l-79 -119h-133z" />
    <glyph glyph-name="Zdotaccent" unicode="&#x17b;" horiz-adv-x="682" 
d="M263 140h404v-140h-662l386 605h-348v140h611zM326 983c48 0 88 -39 88 -90c0 -49 -40 -90 -88 -90s-89 41 -89 90c0 51 41 90 89 90z" />
    <glyph glyph-name="zdotaccent" unicode="&#x17c;" horiz-adv-x="469" 
d="M451 0h-443l225 376h-195v129h416l-210 -370h207v-135zM258 749c48 0 88 -39 88 -90c0 -49 -40 -90 -88 -90s-89 41 -89 90c0 51 41 90 89 90z" />
    <glyph glyph-name="Zcaron" unicode="&#x17d;" horiz-adv-x="682" 
d="M263 140h404v-140h-662l386 605h-348v140h611zM509 991l-165 -206l-165 206h133l32 -43l31 43h134z" />
    <glyph glyph-name="zcaron" unicode="&#x17e;" horiz-adv-x="469" 
d="M451 0h-443l225 376h-195v129h416l-210 -370h207v-135zM422 757l-165 -206l-165 206h134l31 -43l32 43h133z" />
    <glyph glyph-name="uni0218" unicode="&#x218;" horiz-adv-x="556" 
d="M240 -253h-81l53 181h138zM250 330c-129 15 -213 96 -213 213c0 126 116 215 219 215c74 0 144 -28 201 -96l-122 -89c-20 21 -53 37 -79 37c-41 0 -69 -25 -69 -66c0 -34 25 -65 104 -70c127 -8 232 -94 232 -238c0 -145 -121 -249 -252 -249c-85 0 -170 31 -241 109
l128 94c34 -43 69 -54 113 -54c51 0 91 41 91 89c0 60 -40 97 -112 105z" />
    <glyph glyph-name="uni0219" unicode="&#x219;" horiz-adv-x="402" 
d="M180 203c-92 13 -157 74 -157 160c0 88 91 153 166 153c65 0 115 -27 151 -79l-102 -74c-13 12 -27 21 -46 21s-30 -11 -30 -26c0 -17 12 -27 54 -32c93 -12 164 -60 164 -164c0 -103 -85 -173 -194 -173c-75 0 -130 26 -174 76l120 87c15 -16 33 -22 55 -22
c26 0 38 15 38 34c0 20 -13 34 -45 39zM160 -253h-81l53 181h138z" />
    <glyph glyph-name="uni021A" unicode="&#x21a;" horiz-adv-x="573" 
d="M358 0h-155v605h-184v140h535v-140h-196v-605zM231 -253h-81l53 181h138z" />
    <glyph glyph-name="uni021B" unicode="&#x21b;" horiz-adv-x="361" 
d="M346 374h-120v-161c0 -57 52 -83 117 -83v-141c-151 0 -259 89 -259 220v165h-76v131h76v66l142 103v-169h120v-131zM215 -253h-81l53 181h138z" />
    <glyph glyph-name="Bdotaccent" unicode="&#x1e02;" horiz-adv-x="635" 
d="M331 0h-260v745h239c138 0 237 -58 237 -197c0 -52 -17 -93 -53 -126c67 -46 101 -110 101 -182c0 -152 -127 -240 -264 -240zM226 140h110c64 0 100 37 100 95c0 60 -36 97 -100 97h-110v-192zM226 467h78c75 0 84 38 84 69c0 57 -41 69 -84 69h-78v-138zM269 983
c48 0 88 -39 88 -90c0 -49 -40 -90 -88 -90s-89 41 -89 90c0 51 41 90 89 90z" />
    <glyph glyph-name="bdotaccent" unicode="&#x1e03;" 
d="M50 745h142v-275c22 24 78 46 123 46c135 0 248 -118 248 -264c0 -144 -110 -263 -248 -263c-46 0 -101 18 -123 47v-36h-142v745zM301 130c65 0 118 50 118 122c0 71 -53 122 -118 122c-66 0 -115 -51 -115 -122c0 -72 49 -122 115 -122zM330 749c48 0 88 -39 88 -90
c0 -49 -40 -90 -88 -90s-89 41 -89 90c0 51 41 90 89 90z" />
    <glyph glyph-name="Ddotaccent" unicode="&#x1e0a;" horiz-adv-x="803" 
d="M71 745h302c215 0 390 -160 390 -372c0 -214 -175 -373 -389 -373h-303v745zM226 140h148c129 0 230 99 230 233c0 135 -101 232 -231 232h-147v-465zM339 983c48 0 88 -39 88 -90c0 -49 -40 -90 -88 -90s-89 41 -89 90c0 51 41 90 89 90z" />
    <glyph glyph-name="ddotaccent" unicode="&#x1e0b;" 
d="M400 745h142v-745h-142v36c-22 -29 -77 -47 -123 -47c-138 0 -248 119 -248 263c0 146 113 264 248 264c45 0 101 -22 123 -46v275zM291 130c66 0 115 50 115 122c0 71 -49 122 -115 122c-65 0 -118 -51 -118 -122c0 -72 53 -122 118 -122zM260 749c48 0 88 -39 88 -90
c0 -49 -40 -90 -88 -90s-89 41 -89 90c0 51 41 90 89 90z" />
    <glyph glyph-name="Fdotaccent" unicode="&#x1e1e;" horiz-adv-x="536" 
d="M226 0h-155v745h396v-140h-241v-139h280v-139h-280v-327zM259 983c48 0 88 -39 88 -90c0 -49 -40 -90 -88 -90s-89 41 -89 90c0 51 41 90 89 90z" />
    <glyph glyph-name="fdotaccent" unicode="&#x1e1f;" horiz-adv-x="356" 
d="M342 752v-146c-66 0 -109 -40 -109 -89v-12h99v-131h-99v-374h-142v374h-69v131h69v7c0 140 114 240 251 240zM229 983c48 0 88 -39 88 -90c0 -49 -40 -90 -88 -90s-89 41 -89 90c0 51 41 90 89 90z" />
    <glyph glyph-name="Mdotaccent" unicode="&#x1e40;" horiz-adv-x="936" 
d="M468 457l396 301v-758h-154v449l-242 -175l-242 175v-449h-155v758zM463 983c48 0 88 -39 88 -90c0 -49 -40 -90 -88 -90s-89 41 -89 90c0 51 41 90 89 90z" />
    <glyph glyph-name="mdotaccent" unicode="&#x1e41;" horiz-adv-x="940" 
d="M482 749c48 0 88 -39 88 -90c0 -49 -40 -90 -88 -90s-89 41 -89 90c0 51 41 90 89 90zM543 252v-252h-142v252c0 87 -45 122 -109 122c-53 0 -100 -55 -100 -122v-252h-142v505h142v-35c23 28 80 46 124 46c74 0 141 -34 171 -80c48 64 128 80 180 80
c155 0 230 -118 230 -264v-252h-141v252c0 77 -47 122 -104 122c-62 0 -109 -55 -109 -122z" />
    <glyph glyph-name="Pdotaccent" unicode="&#x1e56;" horiz-adv-x="667" 
d="M226 0h-155v745h254c183 0 312 -149 312 -300c0 -191 -135 -332 -322 -332h-89v-113zM226 254h85c108 0 167 79 167 175c0 87 -57 176 -158 176h-94v-351zM263 983c48 0 88 -39 88 -90c0 -49 -40 -90 -88 -90s-89 41 -89 90c0 51 41 90 89 90z" />
    <glyph glyph-name="pdotaccent" unicode="&#x1e57;" 
d="M192 -241h-142v746h142v-35c22 24 77 46 123 46c139 0 248 -118 248 -262c0 -146 -113 -265 -251 -265c-42 0 -93 15 -120 47v-277zM301 374c-66 0 -115 -50 -115 -121c0 -72 49 -123 115 -123c65 0 118 51 118 123c0 71 -53 121 -118 121zM292 749c48 0 88 -39 88 -90
c0 -49 -40 -90 -88 -90s-89 41 -89 90c0 51 41 90 89 90z" />
    <glyph glyph-name="Sdotaccent" unicode="&#x1e60;" horiz-adv-x="556" 
d="M253 983c48 0 88 -39 88 -90c0 -49 -40 -90 -88 -90s-89 41 -89 90c0 51 41 90 89 90zM250 330c-129 15 -213 96 -213 213c0 126 116 215 219 215c74 0 144 -28 201 -96l-122 -89c-20 21 -53 37 -79 37c-41 0 -69 -25 -69 -66c0 -34 25 -65 104 -70
c127 -8 232 -94 232 -238c0 -145 -121 -249 -252 -249c-85 0 -170 31 -241 109l128 94c34 -43 69 -54 113 -54c51 0 91 41 91 89c0 60 -40 97 -112 105z" />
    <glyph glyph-name="sdotaccent" unicode="&#x1e61;" horiz-adv-x="402" 
d="M180 203c-92 13 -157 74 -157 160c0 88 91 153 166 153c65 0 115 -27 151 -79l-102 -74c-13 12 -27 21 -46 21s-30 -11 -30 -26c0 -17 12 -27 54 -32c93 -12 164 -60 164 -164c0 -103 -85 -173 -194 -173c-75 0 -130 26 -174 76l120 87c15 -16 33 -22 55 -22
c26 0 38 15 38 34c0 20 -13 34 -45 39zM185 749c48 0 88 -39 88 -90c0 -49 -40 -90 -88 -90s-89 41 -89 90c0 51 41 90 89 90z" />
    <glyph glyph-name="Tdotaccent" unicode="&#x1e6a;" horiz-adv-x="573" 
d="M358 0h-155v605h-184v140h535v-140h-196v-605zM286 983c48 0 88 -39 88 -90c0 -49 -40 -90 -88 -90s-89 41 -89 90c0 51 41 90 89 90z" />
    <glyph glyph-name="tdotaccent" unicode="&#x1e6b;" horiz-adv-x="361" 
d="M346 374h-120v-161c0 -57 52 -83 117 -83v-141c-151 0 -259 89 -259 220v165h-76v131h76v66l142 103v-169h120v-131zM162 876c48 0 88 -39 88 -90c0 -49 -40 -90 -88 -90s-89 41 -89 90c0 51 41 90 89 90z" />
    <glyph glyph-name="Wgrave" unicode="&#x1e80;" horiz-adv-x="1081" 
d="M714 308l212 437h161l-379 -758l-163 307l-153 -307l-398 758h178l226 -437l70 135l-158 302h178zM253 927l93 67l119 -186h-134z" />
    <glyph glyph-name="wgrave" unicode="&#x1e81;" horiz-adv-x="741" 
d="M502 263l106 242h139l-251 -518l-114 238l-114 -238l-274 518h157l121 -243l46 98l-68 145h136zM147 693l94 67l118 -186h-134z" />
    <glyph glyph-name="Wacute" unicode="&#x1e82;" horiz-adv-x="1081" 
d="M714 308l212 437h161l-379 -758l-163 307l-153 -307l-398 758h178l226 -437l70 135l-158 302h178zM478 994l94 -67l-78 -119h-134z" />
    <glyph glyph-name="wacute" unicode="&#x1e83;" horiz-adv-x="741" 
d="M502 263l106 242h139l-251 -518l-114 238l-114 -238l-274 518h157l121 -243l46 98l-68 145h136zM364 760l94 -67l-78 -119h-134z" />
    <glyph glyph-name="Wdieresis" unicode="&#x1e84;" horiz-adv-x="1081" 
d="M714 308l212 437h161l-379 -758l-163 307l-153 -307l-398 758h178l226 -437l70 135l-158 302h178zM464 869c0 -38 -27 -64 -63 -64c-34 0 -62 25 -62 64c0 37 28 62 62 62c36 0 63 -25 63 -62zM725 869c0 -38 -28 -64 -64 -64c-33 0 -61 25 -61 64c0 37 28 62 61 62
c36 0 64 -25 64 -62z" />
    <glyph glyph-name="wdieresis" unicode="&#x1e85;" horiz-adv-x="741" 
d="M502 263l106 242h139l-251 -518l-114 238l-114 -238l-274 518h157l121 -243l46 98l-68 145h136zM306 635c0 -38 -27 -64 -63 -64c-34 0 -62 25 -62 64c0 37 28 62 62 62c36 0 63 -25 63 -62zM567 635c0 -38 -28 -64 -64 -64c-33 0 -61 25 -61 64c0 37 28 62 61 62
c36 0 64 -25 64 -62z" />
    <glyph glyph-name="Ygrave" unicode="&#x1ef2;" horiz-adv-x="764" 
d="M389 379l218 366h163l-306 -505v-240h-154v226l-316 519h178zM245 927l93 67l119 -186h-134z" />
    <glyph glyph-name="ygrave" unicode="&#x1ef3;" horiz-adv-x="574" 
d="M221 48l-227 457h156l146 -313l143 313h141l-347 -746h-147zM156 693l94 67l118 -186h-134z" />
    <glyph glyph-name="uni2116" unicode="&#x2116;" horiz-adv-x="1293" 
d="M601 314v431h155v-758l-530 441v-428h-155v759zM836 0v108h420v-108h-420zM1046 181c-115 0 -208 94 -208 209c0 117 93 210 208 210c117 0 210 -93 210 -210c0 -115 -93 -209 -210 -209zM1048 483c-48 0 -89 -42 -89 -93c0 -50 41 -94 89 -94s88 44 88 94
c0 51 -40 93 -88 93z" />
    <glyph glyph-name="onethird" unicode="&#x2153;" horiz-adv-x="909" 
d="M299 0h-125l335 745h119zM232 745v-479h-112v376h-56v103h168zM578 480h277l-88 -168c57 -28 92 -83 92 -147c0 -98 -75 -173 -170 -173c-55 0 -109 33 -144 81l91 66c16 -20 34 -36 53 -36c29 0 54 25 54 57c0 34 -25 56 -54 56h-82l83 161h-112v103z" />
    <glyph glyph-name="twothirds" unicode="&#x2154;" horiz-adv-x="1039" 
d="M429 0h-125l335 745h119zM708 480h277l-88 -168c56 -28 91 -83 91 -147c0 -98 -74 -173 -169 -173c-55 0 -109 33 -144 81l91 66c15 -20 34 -36 53 -36c29 0 54 25 54 57c0 34 -25 56 -54 56h-82l83 161h-112v103zM359 266h-322l131 212c-61 11 -111 63 -111 133
c0 74 61 143 140 143c80 0 143 -63 143 -143c0 -29 -8 -56 -22 -78l-101 -164h142v-103zM163 610c0 -20 17 -37 37 -37s37 17 37 37s-17 37 -37 37s-37 -17 -37 -37z" />
    <glyph glyph-name="oneeighth" unicode="&#x215b;" horiz-adv-x="894" 
d="M299 0h-125l335 745h119zM232 745v-479h-112v376h-56v103h168zM682 -8c-92 0 -167 75 -167 168c0 41 18 83 45 115c-13 20 -20 42 -20 70c0 80 64 143 142 143c80 0 144 -63 144 -143c0 -26 -7 -50 -20 -70c28 -32 44 -70 44 -115c0 -93 -73 -168 -168 -168zM682 216
c-29 0 -53 -24 -53 -56c0 -31 24 -57 53 -57c30 0 54 26 54 57c0 32 -24 56 -54 56zM682 379c-16 0 -32 -15 -32 -34c0 -20 16 -34 32 -34c19 0 33 14 33 34c0 19 -15 34 -33 34z" />
    <glyph glyph-name="threeeighths" unicode="&#x215c;" horiz-adv-x="937" 
d="M379 0h-125l334 745h120zM836 256v-43h61v-103h-61v-110h-107v110h-197l162 370h115l-114 -267h34v43h107zM71 745h278l-88 -167c56 -28 91 -83 91 -147c0 -99 -75 -174 -170 -174c-55 0 -108 33 -144 81l92 67c15 -20 34 -36 52 -36c30 0 54 24 54 57
c0 34 -24 56 -54 56h-82l84 160h-113v103z" />
    <glyph glyph-name="fiveeighths" unicode="&#x215d;" horiz-adv-x="972" 
d="M374 0h-125l335 745h119zM760 -8c-92 0 -167 75 -167 168c0 41 19 83 46 115c-13 20 -20 42 -20 70c0 80 63 143 141 143c80 0 144 -63 144 -143c0 -26 -7 -50 -20 -70c28 -32 45 -70 45 -115c0 -93 -74 -168 -169 -168zM760 216c-29 0 -52 -24 -52 -56
c0 -31 23 -57 52 -57c31 0 54 26 54 57c0 32 -23 56 -54 56zM760 379c-16 0 -31 -15 -31 -34c0 -20 15 -34 31 -34c19 0 33 14 33 34c0 19 -15 34 -33 34zM69 745h226v-103h-122v-49h5c101 0 169 -63 169 -160c0 -102 -77 -176 -176 -176c-53 0 -107 31 -142 79l90 68
c13 -20 33 -35 52 -35c35 0 62 19 62 57s-23 56 -55 56h-109v263z" />
    <glyph glyph-name="seveneighths" unicode="&#x215e;" horiz-adv-x="904" 
d="M306 0h-125l335 745h119zM692 -8c-92 0 -167 75 -167 168c0 41 19 83 46 115c-13 20 -20 42 -20 70c0 80 63 143 141 143c80 0 144 -63 144 -143c0 -26 -7 -50 -19 -70c28 -32 44 -70 44 -115c0 -93 -74 -168 -169 -168zM692 216c-29 0 -52 -24 -52 -56
c0 -31 23 -57 52 -57c31 0 54 26 54 57c0 32 -23 56 -54 56zM692 379c-16 0 -31 -15 -31 -34c0 -20 15 -34 31 -34c19 0 33 14 33 34c0 19 -15 34 -33 34zM42 745h342l-245 -479h-120l190 376h-167v103z" />
    <glyph glyph-name="minus" unicode="&#x2212;" horiz-adv-x="613" 
d="M549 409v-112h-485v112h485z" />
    <glyph glyph-name="smileface" unicode="&#x263a;" horiz-adv-x="851" 
d="M425 -13c-213 0 -385 174 -385 385c0 214 172 386 385 386c214 0 386 -172 386 -386c0 -211 -172 -385 -386 -385zM425 676c-165 0 -293 -134 -293 -304c0 -167 128 -301 293 -301c166 0 296 134 296 301c0 170 -131 304 -296 304zM292 528c36 0 61 -26 61 -59
c0 -32 -25 -59 -61 -59c-35 0 -59 27 -59 59c0 33 25 59 59 59zM238 331h86v-4c2 -52 49 -96 106 -96c54 0 102 43 108 100h87c-6 -99 -91 -182 -195 -182c-108 0 -190 78 -192 178v4zM569 528c36 0 61 -26 61 -59c0 -32 -25 -59 -61 -59c-35 0 -59 27 -59 59
c0 33 25 59 59 59z" />
    <glyph glyph-name="invsmileface" unicode="&#x263b;" horiz-adv-x="851" 
d="M425 -13c-213 0 -385 174 -385 385c0 214 172 386 385 386c214 0 386 -172 386 -386c0 -211 -172 -385 -386 -385zM292 528c-34 0 -59 -26 -59 -59c0 -32 24 -59 59 -59c36 0 61 27 61 59c0 33 -25 59 -61 59zM324 331h-86v-4c2 -100 84 -178 192 -178
c104 0 189 83 195 182h-87c-6 -57 -54 -100 -108 -100c-57 0 -104 44 -106 96v4zM569 528c-34 0 -59 -26 -59 -59c0 -32 24 -59 59 -59c36 0 61 27 61 59c0 33 -25 59 -61 59z" />
    <glyph glyph-name="longs_t" unicode="&#xfb05;" horiz-adv-x="769" 
d="M565 519v-167c0 -22 5 -27 19 -31c76 -9 153 -60 153 -160c0 -98 -84 -172 -187 -172c-61 0 -125 23 -172 73l117 89c20 -16 40 -21 59 -21c17 0 36 12 36 34c0 20 -19 30 -35 33c-77 8 -132 69 -132 161v161c0 54 -34 89 -90 89c-60 0 -103 -34 -103 -89v-519h-142v292
h-58v141h58v86c0 139 115 238 243 238c132 0 234 -99 234 -238z" />
    </font>
</defs>
</svg>
